<?xml version="1.0" standalone="no"?>
<!DOCTYPE svg PUBLIC "-//W3C//DTD SVG 1.1//EN" "http://www.w3.org/Graphics/SVG/1.1/DTD/svg11.dtd" >
<svg xmlns="http://www.w3.org/2000/svg">
<metadata>
This is a custom SVG webfont generated by Font Squirrel.
Copyright   : Copyright c 2011 by Red Hat Inc All rights reserved
Designer    : Delve Withrington
Foundry     : Delve Fonts
Foundry URL : httpwwwredhatcom
</metadata>
<defs>
<font id="webfontzAU82Ltw" horiz-adv-x="1210" >
<font-face units-per-em="2048" ascent="1536" descent="-512" />
<missing-glyph horiz-adv-x="471" />
<glyph unicode="&#xfb01;" horiz-adv-x="1157" d="M453 813v-813h-266v813h-145v234h145v159q0 78 22.5 127t59 76.5t82.5 38t94 10.5q63 0 120 -11.5t114 -39.5v-217q-31 12 -54 18.5t-41 10.5t-31 5t-24 1q-34 0 -55 -17.5t-21 -54.5v-106h226v-234h-226zM742 0v1047h266v-1047h-266zM875 1169q-32 0 -60.5 12.5 t-49.5 33.5t-33.5 49.5t-12.5 60.5t12.5 60t33.5 49t49.5 33t60.5 12t60.5 -12t49.5 -33t33 -49t12 -60t-12 -60.5t-33 -49.5t-49.5 -33.5t-60.5 -12.5z" />
<glyph unicode="&#xfb02;" horiz-adv-x="1145" d="M453 813v-813h-266v813h-145v234h145v159q0 78 22.5 127t59 76.5t82.5 38t94 10.5q63 0 120 -11.5t114 -39.5v-217q-31 12 -54 18.5t-41 10.5t-31 5t-24 1q-34 0 -55 -17.5t-21 -54.5v-106h226v-234h-226zM735 0v1354l266 125v-1479h-266z" />
<glyph unicode=" "  horiz-adv-x="471" />
<glyph unicode="&#x09;" horiz-adv-x="471" />
<glyph unicode="&#xa0;" horiz-adv-x="471" />
<glyph unicode="!" horiz-adv-x="614" d="M229 395l-57 600v463h266v-463l-57 -600h-152zM305 -25q-38 0 -70 13.5t-55.5 37.5t-37 56t-13.5 68t13.5 68t37 56t55.5 38t70 14t71 -14t57 -38t38 -56t14 -68t-14 -68t-38 -56t-57 -37.5t-71 -13.5z" />
<glyph unicode="&#x22;" horiz-adv-x="918" d="M92 1434h320l-50 -596h-221zM506 1434h319l-49 -596h-221z" />
<glyph unicode="#" horiz-adv-x="1434" d="M248 0l55 360h-217l33 230h219l43 289h-217l33 229h221l47 326h233l-49 -326h248l51 326h232l-50 -326h218l-33 -229h-219l-43 -289h217l-35 -230h-217l-55 -360h-234l55 360h-247l-56 -360h-233zM571 590h248l43 289h-248z" />
<glyph unicode="$" horiz-adv-x="1231" d="M807 1047q-12 30 -31.5 57.5t-45.5 47.5t-59.5 32t-74.5 12q-71 0 -112.5 -33t-41.5 -92q0 -44 28.5 -74t75.5 -54t107 -45.5t122 -48t122 -61.5t107 -85.5t75.5 -121t28.5 -167.5q0 -90 -28 -162t-76.5 -125.5t-114 -88.5t-141.5 -50v-176h-269v182 q-139 34 -234.5 130.5t-142.5 240.5l252 92q21 -48 49.5 -88.5t64 -69.5t76.5 -45t87 -16q88 0 141 45t53 129q0 54 -28.5 90.5t-75.5 64.5t-106.5 50.5l-122 48t-122 57.5t-106.5 79t-75.5 112t-28.5 157q0 66 21 126t61.5 109.5t100 85t136.5 52.5v164h269v-166 q62 -16 111.5 -46t87.5 -70.5t65 -90.5t43 -107z" />
<glyph unicode="%" horiz-adv-x="1729" d="M440 709q-95 0 -161.5 33.5t-108 87.5t-60 120.5t-18.5 132.5q0 41 8 84.5t25.5 85.5t44.5 79t66 65t89.5 44.5t114.5 16.5q95 0 161.5 -33.5t108 -87.5t60 -121t18.5 -133q0 -61 -18 -127t-58.5 -121t-107.5 -90.5t-164 -35.5zM440 930q31 0 53.5 12.5t37 33.5 t21.5 48.5t7 58.5q0 69 -29.5 111.5t-89.5 42.5q-31 0 -53 -12.5t-36.5 -33.5t-21.5 -49t-7 -59q0 -68 29 -110.5t89 -42.5zM508 -25h-264l977 1483h264zM1288 -25q-96 0 -162.5 34t-107.5 87.5t-59.5 120.5t-18.5 133q0 41 8 84.5t25.5 85.5t44.5 79t66 65t89.5 44.5 t114.5 16.5q95 0 161.5 -34t108 -87.5t60 -120.5t18.5 -133q0 -62 -18 -128t-58.5 -121t-107.5 -90.5t-164 -35.5zM1288 197q31 0 53.5 12.5t37 33.5t21.5 48.5t7 58.5q0 68 -29.5 111t-89.5 43q-31 0 -53.5 -12.5t-37 -33.5t-21.5 -49t-7 -59q0 -68 28.5 -110.5t90.5 -42.5 z" />
<glyph unicode="&#x26;" horiz-adv-x="1473" d="M1079 0l-110 137q-79 -77 -179.5 -119.5t-230.5 -42.5q-99 0 -179.5 29.5t-137.5 83.5t-88 130.5t-31 170.5q0 78 24.5 141.5t66.5 114.5t97 90.5t117 71.5q-38 45 -63.5 84t-41.5 76.5t-23 75t-7 79.5q0 82 28 145t77.5 105.5t115.5 64t143 21.5q78 0 143.5 -23.5 t113 -66.5t74 -104.5t26.5 -137.5q0 -65 -18 -118t-49 -96.5t-72.5 -79.5t-88.5 -66l158 -188q8 32 12.5 68t4.5 71h262q-1 -49 -7.5 -99t-18 -97t-28.5 -90t-39 -77l295 -354h-346zM588 231q66 0 123 24.5t106 68.5l-246 303q-85 -47 -128.5 -102.5t-43.5 -127.5 q0 -36 13 -66.5t37 -52.5t59 -34.5t80 -12.5zM543 1139q0 -51 27 -100t75 -103q53 32 86 77.5t33 108.5q0 34 -9 58.5t-25 40.5t-36.5 24t-42.5 8q-46 0 -77 -31t-31 -83z" />
<glyph unicode="'" horiz-adv-x="504" d="M92 1434h320l-50 -596h-221z" />
<glyph unicode="(" horiz-adv-x="762" d="M393 -266q-47 61 -92 145.5t-80 190.5t-56.5 233.5t-21.5 276.5t23.5 281.5t61.5 244t87.5 201t100.5 151.5h264q-33 -41 -79 -122t-88 -195t-71.5 -256t-29.5 -305q0 -161 27.5 -298.5t66.5 -246t81 -185.5t70 -116h-264z" />
<glyph unicode=")" horiz-adv-x="762" d="M104 -266q19 26 44.5 69t53 101.5t54 131t47.5 158t34 182.5t13 204q0 163 -29.5 305t-71.5 256t-88 195t-79 122h264q51 -62 100 -151.5t87.5 -201t61.5 -244t23 -281.5t-21.5 -276.5t-56.5 -233.5t-79.5 -190.5t-91.5 -145.5h-265z" />
<glyph unicode="*" horiz-adv-x="1126" d="M588 776l-25 96l-24 -96l-152 -203l-199 144l152 205l80 39l-96 2l-222 73l76 238l225 -74l68 -51l-33 82v244h250v-244l-33 -82l68 51l225 74l76 -238l-221 -73l-96 -2l79 -39l152 -205l-199 -144z" />
<glyph unicode="+" horiz-adv-x="1290" d="M778 573v-352h-266v352h-348v258h348v353h266v-353h348v-258h-348z" />
<glyph unicode="," horiz-adv-x="506" d="M72 -205q14 12 33 34t38.5 48t36 54t25.5 53q-50 15 -83.5 55.5t-33.5 103.5q0 39 14 70t38 53.5t55 34.5t65 12q36 0 67.5 -13t55.5 -37.5t37.5 -61t13.5 -84.5q0 -60 -20.5 -119t-55 -112.5t-79.5 -98.5t-95 -76z" />
<glyph unicode="-" horiz-adv-x="844" d="M154 477v256h536v-256h-536z" />
<glyph unicode="." horiz-adv-x="494" d="M246 -25q-37 0 -68.5 13t-54.5 35.5t-36 53.5t-13 66q0 36 13 67t36 54t54.5 36t68.5 13t68.5 -13t55 -36t37 -54t13.5 -67q0 -35 -13.5 -66t-37 -53.5t-55 -35.5t-68.5 -13z" />
<glyph unicode="/" horiz-adv-x="1069" d="M-31 -266l805 1724h275l-805 -1724h-275z" />
<glyph unicode="0" horiz-adv-x="1364" d="M682 -25q-103 0 -182 30.5t-138 83.5t-98.5 125t-64 154.5t-35 171.5t-10.5 177t10.5 177.5t35 172t64 154t98.5 124t138 83t182 30.5t182 -30t138 -83t98.5 -124t64 -153.5t35 -172t10.5 -178.5q0 -88 -10.5 -177t-35 -171.5t-64 -154.5t-98.5 -125t-138 -83.5 t-182 -30.5zM682 238q73 0 121.5 41t77.5 108.5t41 153.5t12 176t-12 176t-41 153.5t-77.5 108.5t-121.5 41t-121.5 -41t-77.5 -108.5t-41 -153.5t-12 -176t12 -176t41 -153.5t77.5 -108.5t121.5 -41z" />
<glyph unicode="1" horiz-adv-x="854" d="M291 0v1061h-219v219q51 0 94.5 7.5t79 25.5t61 47.5t39.5 73.5h221v-1434h-276z" />
<glyph unicode="2" horiz-adv-x="1266" d="M133 0q0 159 39.5 282.5t107.5 218.5t159 166.5t194 127.5q39 21 76 44t65.5 51t46 62t17.5 76q0 79 -51 123.5t-136 44.5q-90 0 -151 -43t-97 -119l-247 113q31 72 81 129.5t113 98t138 62t157 21.5q111 0 198 -33t147 -90t92 -134.5t32 -166.5q0 -98 -27 -169t-75 -125 t-115 -97.5t-147 -87.5q-112 -62 -186 -131.5t-103 -157.5h665v-266h-993z" />
<glyph unicode="3" horiz-adv-x="1241" d="M606 -25q-92 0 -170.5 23.5t-142.5 67.5t-112.5 106t-80.5 139l250 101q24 -48 54 -81.5t64 -54t71 -29.5t75 -9q48 0 87.5 12.5t68.5 36t45 57.5t16 78q0 40 -12.5 74.5t-39.5 60t-69 40.5t-100 15h-139v265h139q78 0 125 42.5t47 116.5q0 34 -11.5 63t-33.5 50.5 t-55 34t-76 12.5q-38 0 -69 -10t-57 -27.5t-46.5 -41.5t-36.5 -52l-250 96q31 67 76 122t103.5 94t129.5 60t154 21q100 0 182.5 -30.5t142 -83.5t92 -126t32.5 -157q0 -103 -47 -182t-127 -125q46 -18 86.5 -49.5t71 -74t48 -95t17.5 -113.5q0 -107 -36.5 -190t-102.5 -140 t-158.5 -87t-204.5 -30z" />
<glyph unicode="4" horiz-adv-x="1348" d="M780 0v287h-749v176l733 971h287v-891h174v-256h-174v-287h-271zM780 543v526l-389 -526h389z" />
<glyph unicode="5" horiz-adv-x="1249" d="M272 330q26 -17 56 -33.5t65.5 -29.5t78.5 -21t95 -8q61 0 111.5 16.5t87 48t56.5 76.5t20 102q0 99 -53.5 155t-149.5 56q-74 0 -125.5 -27t-93.5 -73l-256 121l37 721h827v-267h-571l-17 -260q45 20 96.5 33.5t114.5 13.5q117 0 204.5 -38t146 -102.5t87.5 -150.5 t29 -182q0 -117 -41.5 -211t-115 -159.5t-174.5 -100.5t-220 -35q-81 0 -149 12.5t-123.5 32t-98 44t-73.5 49.5z" />
<glyph unicode="6" horiz-adv-x="1270" d="M655 -25q-129 0 -226.5 42.5t-163.5 116.5t-99 175.5t-33 218.5q0 174 48 328t150 276t261 206.5t381 119.5v-262q-79 -12 -157 -38t-146 -69.5t-122 -105.5t-85 -145q38 29 98 50t137 21q102 0 188.5 -34t148.5 -96t97 -148t35 -191q0 -104 -37.5 -189.5t-105.5 -146.5 t-162 -95t-207 -34zM655 238q51 0 94 13.5t74.5 39.5t49.5 63.5t18 85.5q0 49 -18 87.5t-49.5 65t-74.5 40.5t-94 14t-94.5 -14t-75 -41t-49.5 -65.5t-18 -86.5t18 -85.5t49.5 -63.5t75 -39.5t94.5 -13.5z" />
<glyph unicode="7" horiz-adv-x="1120" d="M348 0q1 175 24.5 331t69.5 299t115 276t162 261h-668v267h987v-244q-75 -86 -134.5 -186.5t-105 -207t-78.5 -215.5t-53.5 -212.5t-31 -197.5t-10.5 -171h-277z" />
<glyph unicode="8" horiz-adv-x="1300" d="M649 -25q-119 0 -214.5 33t-162.5 93.5t-103 144.5t-36 186q0 126 65 214t173 138q-35 18 -67.5 45.5t-57.5 64.5t-40.5 83.5t-15.5 101.5q0 84 31.5 153.5t90.5 120t144 78t193 27.5q107 0 192.5 -27.5t145 -78t91.5 -120t32 -153.5q0 -54 -15 -99.5t-40.5 -82.5 t-58.5 -64.5t-68 -46.5q54 -25 98 -60t75.5 -79.5t48.5 -98.5t17 -116q0 -102 -36 -186t-103.5 -144.5t-163.5 -93.5t-215 -33zM649 225q53 0 97.5 16t76.5 44.5t50 67t18 83.5q0 47 -18 86t-50 67.5t-76.5 44t-97.5 15.5q-54 0 -98.5 -15.5t-75.5 -44t-48 -67.5t-17 -86 q0 -45 17 -83.5t48 -67t75.5 -44.5t98.5 -16zM649 903q42 0 76.5 12t59 33t38 50t13.5 63q0 32 -13.5 59.5t-38 48t-59 32t-76.5 11.5q-43 0 -77 -11.5t-58 -32t-36.5 -48t-12.5 -59.5q0 -34 12.5 -63t36.5 -50t58 -33t77 -12z" />
<glyph unicode="9" horiz-adv-x="1270" d="M336 238q77 2 153 20t142 60t118 113t80 179q-38 -32 -100 -55t-143 -23q-105 0 -193.5 31.5t-153 91.5t-101 146t-36.5 196q0 105 38 190.5t106.5 145.5t164 92.5t210.5 32.5q134 0 231.5 -41.5t160.5 -115.5t93.5 -175.5t30.5 -222.5q0 -207 -48 -375.5t-147 -289 t-250 -189t-356 -74.5v263zM618 795q113 0 177.5 52.5t64.5 151.5q0 45 -17 82.5t-48.5 63.5t-75.5 40.5t-98 14.5q-56 0 -101 -14.5t-76.5 -40.5t-48 -63.5t-16.5 -82.5q0 -99 64 -151.5t175 -52.5z" />
<glyph unicode=":" horiz-adv-x="494" d="M246 657q-37 0 -68.5 13t-54.5 35.5t-36 53.5t-13 66q0 36 13 67t36 54t54.5 36t68.5 13t68.5 -13t55 -36t37 -54t13.5 -67q0 -35 -13.5 -66t-37 -53.5t-55 -35.5t-68.5 -13zM246 -25q-37 0 -68.5 13t-54.5 35.5t-36 53.5t-13 66q0 36 13 67t36 54t54.5 36t68.5 13 t68.5 -13t55 -36t37 -54t13.5 -67q0 -35 -13.5 -66t-37 -53.5t-55 -35.5t-68.5 -13z" />
<glyph unicode=";" horiz-adv-x="494" d="M254 657q-37 0 -68.5 13t-54.5 35.5t-36 53.5t-13 66q0 36 13 67t36 54t54.5 36t68.5 13t68.5 -13t55 -36t37 -54t13.5 -67q0 -35 -13.5 -66t-37 -53.5t-55 -35.5t-68.5 -13zM66 -205q13 12 32.5 32.5t39 45.5t36 53.5t25.5 57.5q-50 15 -83.5 55.5t-33.5 103.5 q0 39 14 70t38 53.5t55 34.5t65 12q36 0 67.5 -13t55.5 -37.5t37.5 -61t13.5 -84.5q0 -65 -20.5 -125t-55 -112t-79.5 -95t-95 -74z" />
<glyph unicode="&#x3c;" horiz-adv-x="1290" d="M1126 201l-962 393v217l962 393v-278l-565 -224l565 -225v-276z" />
<glyph unicode="=" horiz-adv-x="1290" d="M164 346v258h962v-258h-962zM164 801v258h962v-258h-962z" />
<glyph unicode="&#x3e;" horiz-adv-x="1290" d="M1126 594l-962 -393v278l565 223l-565 226v276l962 -393v-217z" />
<glyph unicode="?" horiz-adv-x="1034" d="M367 387v74q0 95 24.5 160t61 112t79 81.5t79 67.5t61 70t24.5 90q0 70 -45.5 115t-132.5 45q-102 0 -156.5 -63t-54.5 -178h-266q0 120 35 212.5t98.5 155.5t151 96t192.5 33q108 0 191.5 -32t139.5 -88t85 -132t29 -164q0 -63 -14 -111t-37.5 -85.5t-53 -67.5 t-60.5 -56.5l-60.5 -52.5t-53 -56.5t-37.5 -67.5t-14 -86v-72h-266zM502 -25q-37 0 -68.5 13t-54.5 35.5t-36 53.5t-13 66q0 36 13 67t36 54t54.5 36t68.5 13t68.5 -13t55 -36t37 -54t13.5 -67q0 -35 -13.5 -66t-37 -53.5t-55 -35.5t-68.5 -13z" />
<glyph unicode="@" horiz-adv-x="1714" d="M872 -25q-167 0 -304.5 47.5t-236.5 139t-153.5 225t-54.5 305.5q0 112 27 212.5t77 185.5t119.5 153t155 116t184 73.5t205.5 25.5q160 0 289.5 -48.5t221 -132t140.5 -195t49 -238.5q0 -113 -33 -208.5t-91.5 -164.5t-138 -108t-173.5 -39q-23 0 -48.5 6t-49 18.5 t-41.5 32.5t-27 49q-34 -60 -87 -83t-116 -23q-65 0 -119 24.5t-93 70t-60.5 110t-21.5 145.5q0 78 27 154t76.5 136t119.5 97t157 37q62 0 104.5 -24.5t63.5 -59.5l11 57h202l-67 -364q-13 -62 -20 -105.5t-7 -58.5q0 -16 8 -25.5t27 -9.5q37 0 72 22t63 64.5t45 104.5 t17 141q0 86 -29.5 162t-90 132.5t-153 89.5t-217.5 33q-126 0 -230 -42t-178.5 -117.5t-115.5 -179.5t-41 -228q0 -125 38.5 -221t109.5 -161t171.5 -98.5t225.5 -33.5q66 0 135.5 10t144.5 29l-59 -223q-59 -8 -116 -12.5t-114 -4.5zM811 524q42 0 74.5 21t55 54t34.5 74 t12 81q0 65 -29 104t-81 39q-39 0 -71.5 -18t-56 -49t-36.5 -72.5t-13 -87.5q0 -65 30 -105.5t81 -40.5z" />
<glyph unicode="A" horiz-adv-x="1520" d="M1147 0l-111 297h-553l-110 -297h-297l549 1434h270l549 -1434h-297zM805 922q-11 26 -23.5 62t-21.5 67q-8 -31 -21 -67t-24 -62l-142 -373h373z" />
<glyph unicode="B" horiz-adv-x="1460" d="M184 1434h629q131 0 220 -33t143.5 -87t78 -123t23.5 -142q0 -46 -9.5 -89t-30.5 -80.5t-54 -69t-80 -54.5q61 -23 103.5 -59.5t69 -80.5t38.5 -93t12 -97q0 -76 -25.5 -152t-83 -137t-150 -99t-226.5 -38h-658v1434zM856 258q56 0 93 15.5t58.5 39.5t30.5 54t9 59 q0 35 -10.5 68.5t-38.5 59.5t-76 42t-123 16h-338v-354h395zM780 870q110 0 163.5 42.5t53.5 111.5q0 27 -7 54t-26.5 49t-54.5 35.5t-92 13.5h-356v-306h319z" />
<glyph unicode="C" horiz-adv-x="1352" d="M735 -23q-112 0 -200 30t-155 83t-114 124t-76.5 153.5t-43 171.5t-13.5 178q0 82 14 168.5t43.5 168.5t77 155t114 128t154.5 87t199 32q103 0 187 -28t148 -73.5t108.5 -103.5t68.5 -118l-248 -113q-26 40 -53 72t-58 53.5t-68.5 33t-84.5 11.5q-60 0 -107 -20.5 t-82 -55.5t-59 -82t-39 -99.5t-21.5 -108t-6.5 -107.5q0 -84 18 -168t56 -152t97.5 -110.5t143.5 -42.5q44 0 81 13.5t68.5 37.5t59 58t51.5 75l254 -96q-34 -79 -82 -144.5t-111.5 -112t-143.5 -72.5t-177 -26z" />
<glyph unicode="D" horiz-adv-x="1495" d="M184 1434h484q125 0 225 -28.5t177.5 -78.5t132.5 -118.5t90.5 -148t52 -167.5t16.5 -176q0 -82 -15.5 -167.5t-49.5 -165t-88.5 -149.5t-133 -122.5t-181.5 -82.5t-235 -30h-475v1434zM692 262q107 0 180 41.5t118 107t65 146.5t20 160q0 84 -21 165.5t-64.5 145.5 t-112 103.5t-162.5 39.5h-254v-909h231z" />
<glyph unicode="E" horiz-adv-x="1319" d="M184 0v1434h979v-263h-702v-301h413v-262h-413v-346h745v-262h-1022z" />
<glyph unicode="F" horiz-adv-x="1217" d="M184 0v1434h961v-263h-684v-301h434v-262h-434v-608h-277z" />
<glyph unicode="G" horiz-adv-x="1419" d="M764 -25q-111 0 -201 29t-160 80t-121 121.5t-84 152.5t-49 173.5t-16 185.5q0 87 16.5 176t51 171.5t86 154.5t122 125t159 83.5t196.5 30.5q104 0 183.5 -26t141 -68.5t107 -98t82.5 -114.5l-244 -139q-24 36 -52 68.5t-60.5 57.5t-71.5 39.5t-86 14.5 q-67 0 -118 -20.5t-89.5 -56t-64.5 -82.5t-42 -100t-23 -108.5t-7 -107.5q0 -91 19 -176.5t60.5 -152t107 -106.5t157.5 -40q52 0 97.5 18.5t79.5 50t53.5 74.5t19.5 92v12h-244v263h526v-211q0 -138 -41 -243.5t-112.5 -177t-168.5 -108.5t-210 -37z" />
<glyph unicode="H" horiz-adv-x="1522" d="M1061 0v606h-600v-606h-277v1434h277v-566h600v566h276v-1434h-276z" />
<glyph unicode="I" horiz-adv-x="666" d="M195 0v1434h276v-1434h-276z" />
<glyph unicode="J" horiz-adv-x="1198" d="M532 -25q-78 0 -149.5 21.5t-133 62t-112 99t-86.5 133.5l242 112q40 -77 99.5 -119t139.5 -42q42 0 81 11.5t69 42.5t48 85.5t18 140.5v912h276v-936q0 -102 -21 -181t-57 -137t-84 -97.5t-103 -63t-113 -34t-114 -10.5z" />
<glyph unicode="K" horiz-adv-x="1501" d="M1096 0l-369 686l-266 -328v-358h-277v1434h277v-684l543 684h327l-418 -514l506 -920h-323z" />
<glyph unicode="L" horiz-adv-x="1184" d="M184 0v1434h277v-1168h692v-266h-969z" />
<glyph unicode="M" horiz-adv-x="1698" d="M1237 0v737q0 12 0.5 28l1 32.5t1 30.5t1.5 22q-11 -34 -21.5 -61t-21.5 -52l-348 -762l-350 762q-11 25 -21.5 52t-21.5 61q1 -8 1.5 -22t1 -30.5l1 -32.5t0.5 -28v-737h-277v1434h281l352 -791q11 -26 20 -49.5t17 -48.5q8 25 17 48.5t20 49.5l358 791h264v-1434h-276z " />
<glyph unicode="N" horiz-adv-x="1511" d="M1081 0l-569 836q-14 21 -30.5 51.5t-28.5 56.5q3 -23 4.5 -54t1.5 -54v-836h-275v1434h260l555 -826q13 -20 30 -50t30 -58q-3 29 -4.5 58.5t-1.5 49.5v826h274v-1434h-246z" />
<glyph unicode="O" horiz-adv-x="1530" d="M766 -25q-116 0 -208 30.5t-162.5 83t-120.5 124t-81.5 154t-46 172t-14.5 178.5q0 88 14.5 177.5t46 172t81.5 154t120.5 124t162.5 83t208 30.5t207.5 -30.5t161.5 -83t120 -124t81.5 -154t46 -172t14.5 -177.5q0 -89 -14.5 -178.5t-46 -172t-81.5 -154t-120 -124 t-161.5 -83t-207.5 -30.5zM766 242q96 0 161.5 45t106 115t58.5 153.5t18 161.5q0 55 -7.5 111.5t-24.5 109t-44 99t-65 81t-88.5 54.5t-114.5 20q-65 0 -115.5 -21t-89 -56.5t-65.5 -82.5t-44 -100t-24.5 -108t-7.5 -107q0 -82 18 -166.5t58.5 -153t106.5 -112t163 -43.5z " />
<glyph unicode="P" horiz-adv-x="1370" d="M184 0v1434h615q136 0 229 -39.5t151 -104t83.5 -145.5t25.5 -164q0 -52 -12 -105.5t-37 -104t-64 -94.5t-93.5 -77.5t-125 -52.5t-157.5 -19h-338v-528h-277zM811 791q53 0 89 17t58.5 44t32.5 61t10 68q0 31 -8.5 64.5t-30 61.5t-58.5 46t-93 18h-350v-380h350z" />
<glyph unicode="Q" horiz-adv-x="1530" d="M766 -25q-116 0 -208 30.5t-162.5 83t-120.5 124t-81.5 154t-46 172t-14.5 178.5q0 88 14.5 177.5t46 172t81.5 154t120.5 124t162.5 83t208 30.5t207.5 -30.5t161.5 -83t120 -124t81.5 -154t46 -172t14.5 -177.5q0 -80 -12 -160.5t-37.5 -156.5t-65 -144t-94.5 -123 l94 -139l-205 -135l-100 147q-48 -14 -100 -22.5t-111 -8.5zM766 242q12 0 25.5 1t25.5 3l-106 157l209 136l102 -156q24 35 40.5 76t27 84.5t15.5 87.5t5 86q0 55 -7.5 111.5t-24.5 109t-44 99t-65 81t-88.5 54.5t-114.5 20q-65 0 -115.5 -21t-89 -56.5t-65.5 -82.5 t-44 -100t-24.5 -108t-7.5 -107q0 -82 18 -166.5t58.5 -153t106.5 -112t163 -43.5z" />
<glyph unicode="R" horiz-adv-x="1462" d="M184 0v1434h666q136 0 227.5 -37.5t147.5 -99.5t80 -143t24 -169q0 -61 -17.5 -123.5t-52.5 -118.5t-87 -101.5t-121 -70.5l278 -571h-311l-268 535h-289v-535h-277zM854 797q53 0 89 15.5t58 41.5t31.5 60t9.5 71q0 34 -8.5 67.5t-29.5 60t-57.5 42.5t-92.5 16h-393 v-374h393z" />
<glyph unicode="S" horiz-adv-x="1300" d="M872 1044q-13 32 -35 60t-52.5 48.5t-70 32t-87.5 11.5q-90 0 -140.5 -36t-50.5 -101q0 -43 32 -72t84 -52.5t118.5 -44.5t136.5 -46.5t136.5 -60t118.5 -85t84 -120t32 -166.5q0 -105 -40 -186t-109.5 -137t-164.5 -85t-205 -29q-101 0 -189 27.5t-159.5 78.5 t-124.5 124t-84 164l252 94q23 -50 55.5 -91.5t72.5 -71t86.5 -46t99.5 -16.5q52 0 94.5 11t73 33t47 54.5t16.5 75.5q0 52 -32 87.5t-84 62t-118.5 48l-136 45.5t-136 56t-118.5 79t-84 113t-32 160q0 81 32.5 152.5t94.5 125.5t152 85.5t206 31.5q97 0 175.5 -25 t138.5 -69.5t101 -105t62 -132.5z" />
<glyph unicode="T" horiz-adv-x="1280" d="M778 1167v-1167h-276v1167h-410v267h1096v-267h-410z" />
<glyph unicode="U" horiz-adv-x="1503" d="M752 -25q-73 0 -144.5 12.5t-135.5 40.5t-118.5 72.5t-94.5 108.5t-62.5 148t-22.5 192v885h277v-885q0 -89 20.5 -148.5t59.5 -94.5t95 -49.5t126 -14.5q69 0 124.5 14.5t95 49.5t60.5 94.5t21 148.5v885h276v-885q0 -160 -48 -269.5t-128.5 -177t-184.5 -97.5t-216 -30 z" />
<glyph unicode="V" horiz-adv-x="1444" d="M856 0h-266l-508 1434h299l315 -938q8 -23 15.5 -49.5l13.5 -49.5q5 22 12 48t15 51l315 938h295z" />
<glyph unicode="W" horiz-adv-x="1786" d="M1694 1434l-310 -1434h-258l-217 844q-9 34 -13 60.5l-7 47.5q-3 -21 -8 -47.5t-13 -58.5l-211 -846h-258l-307 1434h285l160 -807q8 -37 11.5 -61l6.5 -46q3 22 7 46.5t13 62.5l197 805h240l200 -805q10 -38 14 -62.5t7 -46.5l6.5 46t11.5 61l160 807h283z" />
<glyph unicode="X" horiz-adv-x="1458" d="M1032 0l-303 481l-303 -481h-324l465 739l-436 695h324l274 -439l275 439h323l-436 -695l465 -739h-324z" />
<glyph unicode="Y" horiz-adv-x="1458" d="M592 0v559l-531 875h314l354 -586l354 586h314l-531 -875v-559h-274z" />
<glyph unicode="Z" horiz-adv-x="1362" d="M113 0v211l749 960h-704v263h1071v-211l-756 -961h756v-262h-1116z" />
<glyph unicode="[" horiz-adv-x="799" d="M205 -266v1724h512v-256h-246v-1212h246v-256h-512z" />
<glyph unicode="\" horiz-adv-x="1069" d="M774 -266l-805 1724h275l805 -1724h-275z" />
<glyph unicode="]" horiz-adv-x="799" d="M594 -266h-512v256h244v1212h-244v256h512v-1724z" />
<glyph unicode="^" horiz-adv-x="1290" d="M895 696l-250 416l-250 -416h-276l426 762h200l426 -762h-276z" />
<glyph unicode="_" horiz-adv-x="1024" d="M-10 -362v204h1044v-204h-1044z" />
<glyph unicode="`" horiz-adv-x="973" d="M539 1180l-365 319h332l291 -319h-258z" />
<glyph unicode="a" horiz-adv-x="1143" d="M748 0v76q-18 -19 -43.5 -37t-59.5 -32.5t-75.5 -23t-92.5 -8.5q-81 0 -151 22t-122 66t-82 108.5t-30 150.5q0 90 36 155.5t94.5 108t133 62.5t152.5 20q75 0 133.5 -13.5t106.5 -36.5v54q0 86 -49 126t-140 40q-93 0 -171 -27t-152 -78l-82 215q37 25 83.5 47.5 t100.5 39.5t115.5 26.5t128.5 9.5q47 0 97 -5t97.5 -20t90 -43t74.5 -72.5t50.5 -109t18.5 -153.5v-668h-262zM528 209q73 0 127 25.5t93 60.5v113q-41 15 -91.5 24.5t-103.5 9.5q-41 0 -77.5 -6.5t-64 -21t-43.5 -37.5t-16 -55q0 -51 45 -82t131 -31z" />
<glyph unicode="b" horiz-adv-x="1180" d="M633 -25q-76 0 -127.5 25.5t-85.5 75.5v-76h-266v1358l266 121v-508q34 45 90 72.5t133 27.5q94 0 173.5 -37.5t137.5 -108t90.5 -172t32.5 -229.5q0 -133 -31 -235.5t-89 -172t-140 -105.5t-184 -36zM602 231q51 0 90 20.5t65.5 59t40 92.5t13.5 121q0 141 -54.5 216 t-154.5 75q-34 0 -63 -7.5t-52 -20t-40 -28t-27 -30.5v-414q29 -40 73 -62t109 -22z" />
<glyph unicode="c" horiz-adv-x="1120" d="M580 -25q-109 0 -197.5 37.5t-150.5 108t-96 172t-34 229.5t34 230t96 173t150.5 108.5t197.5 37.5q160 0 272.5 -73.5t163.5 -233.5l-254 -84q-23 60 -68 97.5t-108 37.5q-49 0 -88.5 -21t-67 -59t-42.5 -92t-15 -121t15 -120.5t42 -91.5t65 -58.5t85 -20.5q68 0 115 39 t69 113l254 -76q-47 -165 -157.5 -248.5t-280.5 -83.5z" />
<glyph unicode="d" horiz-adv-x="1180" d="M535 -25q-98 0 -178 36t-136.5 105.5t-87.5 172t-31 235.5q0 128 33 229.5t91 172t137.5 108t173.5 37.5q77 0 133 -27.5t90 -72.5v387l266 121v-1479h-266v76q-32 -48 -88.5 -74.5t-136.5 -26.5zM578 231q65 0 109 22t73 62v414q-10 15 -27 30.5t-40.5 28t-52 20 t-62.5 7.5q-101 0 -155 -75t-54 -216q0 -67 13.5 -121t40 -92.5t65.5 -59t90 -20.5z" />
<glyph unicode="e" horiz-adv-x="1147" d="M592 -25q-114 0 -204.5 37.5t-154 108.5t-97.5 173t-34 230t34 229.5t98 172t154.5 108t203.5 37.5q97 0 182 -30t147 -91t98 -153.5t36 -218.5q0 -31 -1 -73.5t-7 -84.5h-682q4 -51 24 -90t50.5 -66t69.5 -41t83 -14q72 0 126 25.5t99 82.5l164 -165q-66 -81 -162 -129 t-227 -48zM592 838q-94 0 -153.5 -47t-71.5 -146h428q-13 93 -68 143t-135 50z" />
<glyph unicode="f" horiz-adv-x="739" d="M483 813v-813h-266v813h-145v234h145v159q0 78 22.5 127t59 76.5t82.5 38t94 10.5q63 0 120 -11.5t114 -39.5v-217q-31 12 -54 18.5t-41 10.5t-31 5t-24 1q-34 0 -55 -17.5t-21 -54.5v-106h226v-234h-226z" />
<glyph unicode="g" horiz-adv-x="1180" d="M385 -188q105 7 177 20t116 38t63 63t19 94v28q-47 -46 -105.5 -63t-119.5 -17q-95 0 -174 34.5t-137 103.5t-90 171.5t-32 239.5q0 128 31.5 229.5t89 172t137.5 108t177 37.5q140 0 223 -80v56h266v-916q0 -59 -5.5 -117.5t-18 -110.5t-32.5 -96t-50 -75 q-40 -40 -86 -65.5t-95.5 -41.5t-102 -23.5t-104.5 -11.5zM578 231q65 0 108 22t74 62v414q-12 15 -28 30.5t-38.5 28t-51 20t-64.5 7.5q-101 0 -155 -75t-54 -216q0 -64 12.5 -117.5t38.5 -92.5t65.5 -61t92.5 -22z" />
<glyph unicode="h" d="M801 0v614q0 53 -14 91t-39 62.5t-58 36t-72 11.5q-41 0 -77 -10.5t-63 -34t-42.5 -61t-15.5 -91.5v-618h-266v1356l266 123v-531q48 59 118.5 91t161.5 32q67 0 133 -20t118 -68t84 -127t32 -197v-659h-266z" />
<glyph unicode="i" horiz-adv-x="578" d="M156 0v1047h266v-1047h-266zM289 1169q-32 0 -60.5 12.5t-49.5 33.5t-33.5 49.5t-12.5 60.5t12.5 60t33.5 49t49.5 33t60.5 12t60.5 -12t49.5 -33t33 -49t12 -60t-12 -60.5t-33 -49.5t-49.5 -33.5t-60.5 -12.5z" />
<glyph unicode="j" horiz-adv-x="578" d="M-137 -227q81 18 137 37.5t90.5 45t50 58.5t15.5 78v1055h266v-990q0 -45 -4 -89.5t-15 -87t-31 -81.5t-53 -73q-37 -39 -77.5 -66.5t-82 -46.5t-83 -31t-78.5 -20zM289 1169q-32 0 -60.5 12.5t-49.5 33.5t-33.5 49.5t-12.5 60.5t12.5 60t33.5 49t49.5 33t60.5 12 t60.5 -12t49.5 -33t33 -49t12 -60t-12 -60.5t-33 -49.5t-49.5 -33.5t-60.5 -12.5z" />
<glyph unicode="k" horiz-adv-x="1159" d="M807 0l-289 553l-98 -94v-459h-266v1354l266 125v-717l280 285h320l-307 -304l385 -743h-291z" />
<glyph unicode="l" horiz-adv-x="594" d="M164 0v1354l266 125v-1479h-266z" />
<glyph unicode="m" horiz-adv-x="1792" d="M1382 0v616q0 66 -16 105.5t-40 60.5t-53 27t-56 6q-30 0 -62.5 -6.5t-59 -27t-44 -59.5t-17.5 -104v-618h-266v616q0 66 -16 105.5t-40 60.5t-53.5 27t-56.5 6q-29 0 -61 -6.5t-59 -27t-44.5 -59.5t-17.5 -104v-618h-266v1047h266v-97q42 56 103 88.5t145 32.5 q99 0 165 -37.5t103 -109.5q56 77 140 112t181 35q83 0 155 -20.5t124.5 -68.5t82.5 -127.5t30 -197.5v-657h-267z" />
<glyph unicode="n" d="M801 0v614q0 53 -14 91t-39 62.5t-58 36t-72 11.5q-41 0 -77 -10.5t-63 -34t-42.5 -61t-15.5 -91.5v-618h-266v1047h266v-99q48 59 118.5 91t161.5 32q67 0 133 -20t118 -68t84 -127t32 -197v-659h-266z" />
<glyph unicode="o" horiz-adv-x="1167" d="M584 -25q-111 0 -200 37.5t-151.5 108t-96.5 172t-34 229.5t34 230t96.5 173t151.5 108.5t200 37.5t200 -37.5t151.5 -108.5t96 -173t33.5 -230t-33.5 -229.5t-96 -172t-151.5 -108t-200 -37.5zM584 231q50 0 90 20t67.5 57.5t42.5 91.5t15 122q0 69 -15 123t-42.5 92 t-67.5 58t-90 20t-90 -20t-67.5 -58t-42.5 -92t-15 -123q0 -68 15 -122t42.5 -91.5t67.5 -57.5t90 -20z" />
<glyph unicode="p" horiz-adv-x="1180" d="M643 -25q-77 0 -133 28t-90 73v-365l-266 -121v1457h266v-76q34 45 90.5 72.5t134.5 27.5q97 0 177 -36t136.5 -105.5t87.5 -172t31 -235.5q0 -128 -32.5 -229.5t-90.5 -172t-137.5 -108t-173.5 -37.5zM602 231q100 0 154.5 75.5t54.5 215.5q0 67 -13.5 121t-40 92 t-65.5 59t-90 21q-65 0 -109 -22t-73 -62v-414q10 -15 27 -30.5t40 -28t52 -20t63 -7.5z" />
<glyph unicode="q" horiz-adv-x="1180" d="M537 -25q-94 0 -173.5 37.5t-137.5 108t-91 172t-33 229.5q0 133 32.5 235.5t91.5 172t141 105.5t180 36q75 0 127 -25.5t86 -74.5v76h266v-1336l-266 -121v486q-34 -45 -90 -73t-133 -28zM578 231q34 0 62.5 7.5t52 20t40.5 28t27 30.5v414q-29 40 -73 62t-109 22 q-51 0 -90 -21t-65.5 -59t-40 -92t-13.5 -121q0 -140 54 -215.5t155 -75.5z" />
<glyph unicode="r" horiz-adv-x="879" d="M154 0v1047h266v-93q22 50 69.5 83.5t124.5 33.5q65 0 116.5 -21t96.5 -59l-36 -243q-38 26 -83.5 43.5t-107.5 17.5q-35 0 -67.5 -10t-57.5 -35t-40 -69t-15 -111v-584h-266z" />
<glyph unicode="s" horiz-adv-x="1012" d="M698 758q-15 15 -34.5 31t-44.5 28.5t-56.5 20.5t-68.5 8q-60 0 -97 -20t-37 -58q0 -21 17 -39t45.5 -33t65.5 -28.5t77 -26.5q67 -22 129.5 -50t110 -68t76 -96t28.5 -134q0 -77 -29 -136t-82.5 -99.5t-129 -61.5t-168.5 -21q-64 0 -125.5 13.5t-116.5 38t-100 59.5 t-76 78l176 149q17 -16 41.5 -35.5t56 -36.5t69 -28.5t79.5 -11.5q69 0 113.5 20.5t44.5 71.5q0 25 -15.5 45t-44.5 37.5t-71 34.5t-95 36q-74 27 -134 56t-102 66.5t-64.5 87.5t-22.5 120q0 72 30 127t81.5 92.5t121 56.5t148.5 19q67 0 125 -14t105.5 -37t85.5 -53.5 t67 -63.5z" />
<glyph unicode="t" horiz-adv-x="805" d="M465 -25q-68 0 -116 19t-78.5 54.5t-45 87t-14.5 116.5v561h-150v234h150v305l266 127v-432h234v-234h-234v-522q0 -40 19.5 -61t54.5 -21q40 0 83 11.5t89 33.5l-31 -231q-46 -23 -104 -35.5t-123 -12.5z" />
<glyph unicode="u" d="M791 0v98q-48 -59 -119 -91t-162 -32q-67 0 -132.5 20.5t-117.5 68.5t-84.5 127t-32.5 196v660h267v-615q0 -53 14 -91t38.5 -62.5t57.5 -36t72 -11.5q41 0 77.5 10.5t63.5 34t42.5 61t15.5 91.5v619h266v-1047h-266z" />
<glyph unicode="v" horiz-adv-x="1145" d="M711 0h-277l-383 1047h275l219 -621q8 -23 15 -47.5t13 -48.5q13 48 29 96l217 621h275z" />
<glyph unicode="w" horiz-adv-x="1538" d="M1171 0h-235l-133 522q-4 14 -8.5 33.5l-9.5 41l-9.5 42.5t-7.5 39q-3 -18 -7.5 -39l-9.5 -42.5l-9.5 -41t-8.5 -33.5l-133 -522h-235l-293 1047h262l123 -510q8 -31 14 -68.5t12 -69.5l15 69.5t16 68.5l133 510h242l131 -510q8 -31 16 -68.5l15 -69.5q6 32 12 69.5 t14 68.5l127 510h262z" />
<glyph unicode="x" d="M829 0l-165 236q-16 23 -32.5 49.5t-27.5 46.5q-9 -20 -25.5 -46t-33.5 -50l-164 -236h-309l379 543l-353 504h310l137 -199l33.5 -50.5t25.5 -45.5q11 20 27.5 46.5t32.5 49.5l139 199h309l-352 -504l379 -543h-310z" />
<glyph unicode="y" horiz-adv-x="1167" d="M561 -397h-276l159 411l-393 1033h273l229 -605q18 -47 31 -96q6 25 14 49l16 47l230 605h272z" />
<glyph unicode="z" horiz-adv-x="1114" d="M113 0v209l540 600h-501v238h839v-203l-538 -606h536v-238h-876z" />
<glyph unicode="{" horiz-adv-x="778" d="M696 -266q-107 2 -193.5 33t-148.5 91t-95.5 149t-33.5 206v135q0 57 -20.5 92t-61.5 35h-61v242h61q41 0 61.5 35.5t20.5 91.5v133q0 117 33.5 206t95.5 149t148.5 91.5t193.5 34.5v-244q-102 -5 -153 -56.5t-51 -145.5v-148q0 -60 -10 -104.5t-28.5 -77t-45 -53.5 t-58.5 -33q65 -25 103.5 -93t38.5 -177v-148q0 -94 51 -146t153 -57v-241z" />
<glyph unicode="|" horiz-adv-x="614" d="M174 -420v2069h266v-2069h-266z" />
<glyph unicode="}" horiz-adv-x="778" d="M82 -25q102 5 153.5 57t51.5 146v148q0 109 38 177t103 93q-32 12 -58 33t-44.5 53.5t-28.5 77t-10 104.5v148q0 94 -51.5 145.5t-153.5 56.5v244q107 -3 194 -34.5t148.5 -91.5t95 -149t33.5 -206v-133q0 -56 21 -91.5t61 -35.5h61v-242h-61q-40 0 -61 -35t-21 -92v-135 q0 -117 -33.5 -206t-95 -149t-148.5 -91t-194 -33v241z" />
<glyph unicode="~" horiz-adv-x="1290" d="M838 518q-66 0 -118.5 17.5t-96.5 38l-82.5 38t-75.5 17.5q-47 0 -68 -31.5t-26 -79.5h-211q0 73 16 140t51 118.5t90.5 82t133.5 30.5q65 0 116 -17.5t94.5 -38l82 -38t79.5 -17.5q47 0 68.5 30.5t26.5 80.5h210q0 -73 -15.5 -140t-50 -118.5t-90 -82t-134.5 -30.5z" />
<glyph unicode="&#xa1;" horiz-adv-x="614" d="M176 -410v463l57 600h152l57 -600v-463h-266zM309 721q-38 0 -70.5 14t-57 38t-38.5 56t-14 68t14 67.5t38.5 55.5t57 37.5t70.5 13.5t70 -13.5t55.5 -37.5t37 -55.5t13.5 -67.5t-13.5 -68t-37 -56t-55.5 -38t-70 -14z" />
<glyph unicode="&#xa2;" horiz-adv-x="1120" d="M428 -25v218q-77 22 -137.5 67.5t-102.5 112t-64 153t-22 191.5q0 103 22.5 190.5t65 155t103 114t135.5 68.5v213h256v-201q121 -21 205.5 -94t126.5 -205l-254 -84q-23 60 -68 98t-108 38q-49 0 -88.5 -21t-67 -59t-42.5 -92t-15 -121t15 -120.5t42 -91.5t65 -58.5 t85 -20.5q68 0 115 38.5t69 113.5l254 -76q-38 -138 -123.5 -218.5t-210.5 -103.5v-205h-256z" />
<glyph unicode="&#xa3;" horiz-adv-x="1229" d="M162 0v254q44 20 74 54.5t49 75.5t28.5 85t12.5 82h-172v246h110q-20 45 -36.5 105.5t-16.5 129.5q0 81 29 157.5t88.5 136t151.5 96t218 36.5q73 0 135 -9.5t117.5 -28.5t106.5 -47.5t102 -65.5l-104 -254q-28 23 -62 48.5t-77 47t-97 35.5t-121 14q-57 0 -97.5 -14 t-66 -36.5t-37.5 -52.5t-12 -61q0 -21 4.5 -43.5t13.5 -50t23.5 -62.5l34.5 -81h348v-246h-309q-5 -77 -28 -151.5t-72 -139.5h667v-260h-1005z" />
<glyph unicode="&#xa4;" horiz-adv-x="1331" d="M666 174q-73 0 -135 15t-117 44l-142 -143l-198 199l149 149q-49 107 -49 244q0 69 14.5 130t38.5 114l-153 153l192 193l144 -144q54 29 117.5 45.5t138.5 16.5q68 0 131.5 -15.5t117.5 -46.5l142 144l200 -199l-151 -149q22 -51 36.5 -114t14.5 -128 q0 -69 -13.5 -132.5t-39.5 -117.5l153 -149l-194 -193l-145 146q-54 -29 -118.5 -45.5t-133.5 -16.5zM666 434q49 0 89.5 18.5t69 51.5t44.5 78.5t16 99.5t-16 99.5t-44.5 78.5t-69 51.5t-89.5 18.5t-89.5 -18.5t-69.5 -51.5t-45 -78.5t-16 -99.5t16 -99.5t45 -78.5 t69.5 -51.5t89.5 -18.5z" />
<glyph unicode="&#xa5;" horiz-adv-x="1245" d="M791 705h241v-201h-276v-133h276v-201h-276v-170h-267v170h-276v201h276v133h-276v201h240l-422 729h307l285 -510l280 510h311z" />
<glyph unicode="&#xa6;" horiz-adv-x="614" d="M174 756v719h266v-719h-266zM174 -246v719h266v-719h-266z" />
<glyph unicode="&#xa7;" horiz-adv-x="1085" d="M741 1116q-16 16 -36.5 31.5t-46 27.5t-56 19.5t-65.5 7.5q-62 0 -99 -24t-37 -64q0 -23 20.5 -44t55 -41t80 -39.5l96.5 -39.5q62 -24 121.5 -52.5t106 -68.5t74.5 -96t28 -137q0 -75 -27.5 -130t-83.5 -95q57 -51 84 -111.5t27 -140.5q0 -86 -29 -153.5t-84.5 -114.5 t-136.5 -72t-184 -25q-143 0 -257.5 52t-189.5 149l193 164q20 -18 46 -37.5t58.5 -35.5t70.5 -26t81 -10q31 0 59 5.5t49.5 17.5t34.5 31.5t13 48.5q0 25 -20 48t-57 45.5t-89.5 46.5l-116.5 52q-56 24 -110 51t-96 65t-67.5 90t-25.5 126q0 71 34 127.5t91 93.5 q-60 48 -92.5 110.5t-32.5 139.5q0 84 31 149.5t86 110t130.5 67.5t164.5 23q70 0 130 -13t110.5 -37t91.5 -57t73 -73zM707 571q0 27 -19 49.5t-51.5 42t-75 36.5t-90.5 34q-34 -6 -52 -24.5t-18 -44.5q0 -23 18 -43t52 -39.5t83.5 -39.5l113.5 -44q18 8 28.5 28.5 t10.5 44.5z" />
<glyph unicode="&#xa8;" horiz-adv-x="973" d="M291 1190q-32 0 -59 11.5t-47.5 31.5t-32 47t-11.5 59q0 31 11.5 58.5t32 48t47.5 32t59 11.5q31 0 58.5 -11.5t47.5 -32t31.5 -48t11.5 -58.5q0 -32 -11.5 -59t-31.5 -47t-47.5 -31.5t-58.5 -11.5zM680 1190q-32 0 -59 11.5t-47.5 31.5t-32 47t-11.5 59q0 31 11.5 58.5 t32 48t47.5 32t59 11.5q31 0 58.5 -11.5t47.5 -32t31.5 -48t11.5 -58.5q0 -32 -11.5 -59t-31.5 -47t-47.5 -31.5t-58.5 -11.5z" />
<glyph unicode="&#xa9;" horiz-adv-x="1729" d="M1182 483q-48 -105 -123.5 -159t-188.5 -54q-105 0 -176 39.5t-114 103t-61.5 143.5t-18.5 161q0 75 19.5 154.5t63 144t114 106t173.5 41.5q58 0 106.5 -14t87 -39t67.5 -60t49 -77l-187 -88q-23 38 -51 58t-72 20t-73.5 -23.5t-47.5 -59.5t-26 -79.5t-8 -83.5 q0 -43 9.5 -87t28.5 -79t48 -57.5t69 -22.5q41 0 71.5 21.5t51.5 56.5zM864 -25q-158 0 -293 57t-235 156.5t-156.5 235t-56.5 293.5q0 105 25.5 200.5t73 178t114.5 149.5t149.5 114.5t178 73t200.5 25.5t201 -25.5t178 -73t149.5 -114.5t114.5 -149.5t73 -178t26 -200.5 t-26 -201t-73 -178t-114.5 -149.5t-149.5 -114.5t-178 -73t-201 -26zM864 152q121 0 222.5 43t175 118.5t114.5 179t41 224.5q0 120 -41 223.5t-114.5 179.5t-175 119t-222.5 43q-120 0 -221.5 -43t-175 -119t-115 -179.5t-41.5 -223.5q0 -121 41.5 -224.5t115 -179 t175 -118.5t221.5 -43z" />
<glyph unicode="&#xaa;" horiz-adv-x="903" d="M575 580v61q-27 -31 -78.5 -56.5t-129.5 -25.5q-62 0 -115.5 18t-93.5 54t-63 89.5t-23 123.5q0 75 27.5 129t72.5 89t102.5 51.5t116.5 16.5q57 0 102 -10t82 -30v40q0 72 -37 105t-106 33t-128.5 -22t-115.5 -64l-67 176q60 42 145 71t191 29q55 0 114 -10.5t108 -45 t80.5 -100t31.5 -174.5v-548h-216zM414 752q54 0 94 20t67 49v92q-29 13 -67 21t-76 8q-30 0 -56.5 -5.5t-47 -17.5t-32 -30.5t-11.5 -44.5q0 -42 33 -67t96 -25z" />
<glyph unicode="&#xab;" horiz-adv-x="1151" d="M373 0l-312 524l312 523h286l-311 -523l311 -524h-286zM834 0l-312 524l312 523h286l-311 -523l311 -524h-286z" />
<glyph unicode="&#xac;" horiz-adv-x="1290" d="M860 330v395h-696v258h962v-653h-266z" />
<glyph unicode="&#xad;" horiz-adv-x="844" d="M154 477v256h536v-256h-536z" />
<glyph unicode="&#xae;" horiz-adv-x="1729" d="M571 285v864h340q84 0 139 -23t87.5 -61t45.5 -86.5t13 -99.5q0 -38 -10 -75t-31.5 -69t-54.5 -58.5t-78 -43.5l37 -75l46 -94.5l47 -97l40 -81.5h-234l-153 323h-33v-323h-201zM911 799q23 0 39 7.5t26 19t14.5 25.5t4.5 28q0 12 -4 26t-13.5 25.5t-25.5 19.5t-41 8 h-139v-159h139zM864 -25q-158 0 -293 57t-235 156.5t-156.5 235t-56.5 293.5q0 105 25.5 200.5t73 178t114.5 149.5t149.5 114.5t178 73t200.5 25.5t201 -25.5t178 -73t149.5 -114.5t114.5 -149.5t73 -178t26 -200.5t-26 -201t-73 -178t-114.5 -149.5t-149.5 -114.5 t-178 -73t-201 -26zM864 152q121 0 222.5 43t175 118.5t114.5 179t41 224.5q0 120 -41 223.5t-114.5 179.5t-175 119t-222.5 43q-120 0 -221.5 -43t-175 -119t-115 -179.5t-41.5 -223.5q0 -121 41.5 -224.5t115 -179t175 -118.5t221.5 -43z" />
<glyph unicode="&#xaf;" horiz-adv-x="973" d="M147 1202v217h676v-217h-676z" />
<glyph unicode="&#xb0;" horiz-adv-x="844" d="M422 1145q28 0 51 10.5t40 29.5t26.5 44.5t9.5 54.5q0 28 -9.5 52.5t-26.5 42.5t-40 28t-51 10t-51 -10t-40 -28t-26.5 -42.5t-9.5 -52.5q0 -29 9.5 -54.5t26.5 -44.5t40 -29.5t51 -10.5zM422 915q-78 0 -145.5 28.5t-117.5 78.5t-79 117t-29 145t29 144.5t79 115.5 t117.5 77t145.5 28t145.5 -28t117.5 -77t79 -115.5t29 -144.5t-29 -145t-79 -117t-117.5 -78.5t-145.5 -28.5z" />
<glyph unicode="&#xb1;" horiz-adv-x="1290" d="M778 690v-297h-266v297h-348v258h348v297h266v-297h348v-258h-348zM164 0v258h962v-258h-962z" />
<glyph unicode="&#xb2;" horiz-adv-x="758" d="M49 909q0 100 23 179.5t63.5 141t95.5 107t119 78.5l35.5 20.5t31 22t21.5 25t8 30.5q0 29 -19.5 49.5t-57.5 20.5q-47 0 -74 -26t-41 -74l-203 49q17 57 47 104t71.5 80.5t94.5 52.5t115 19q68 0 123.5 -19.5t95 -54.5t61 -84t21.5 -108q0 -61 -18 -103.5t-48.5 -74.5 t-71.5 -56.5t-87 -48.5q-51 -28 -87 -57.5t-53 -63.5h363v-209h-629z" />
<glyph unicode="&#xb3;" horiz-adv-x="727" d="M53 1583q40 97 119 151t184 54q65 0 116 -20t86.5 -54t54 -78.5t18.5 -93.5q0 -32 -9 -60t-24 -52t-34.5 -42t-41.5 -30q63 -23 100 -72.5t37 -124.5q0 -58 -20.5 -107t-60.5 -84t-97.5 -55t-132.5 -20q-121 0 -203.5 66.5t-119.5 185.5l206 53q14 -54 45.5 -79t73.5 -25 t65 23t23 59q0 37 -25 59.5t-85 22.5h-78v188h76q46 0 65 21t19 49q0 29 -19 49t-53 20q-40 0 -61 -19.5t-35 -54.5z" />
<glyph unicode="&#xb4;" horiz-adv-x="973" d="M432 1180h-258l291 319h332z" />
<glyph unicode="&#xb5;" horiz-adv-x="1221" d="M801 0v96q-29 -52 -85 -86.5t-134 -34.5q-53 0 -95 16t-65 36v-312l-268 -125v1457h266v-615q0 -53 14 -91t38.5 -62.5t58 -36t71.5 -11.5q42 0 78 10.5t63 34t42.5 61t15.5 91.5v619h266v-1047h-266z" />
<glyph unicode="&#xb6;" horiz-adv-x="1325" d="M895 -221v1399h-150v-1467l-266 -121v971q-117 5 -200 45.5t-136 102t-77.5 136t-24.5 148.5q0 81 24.5 160.5t81 141.5t147.5 100.5t224 38.5h643v-1534z" />
<glyph unicode="&#xb7;" horiz-adv-x="494" d="M246 547q-37 0 -68.5 13t-54.5 35.5t-36 53.5t-13 66t13 66t36 54t54.5 36.5t68.5 13.5t68.5 -13.5t55 -36.5t37 -54t13.5 -66t-13.5 -66t-37 -53.5t-55 -35.5t-68.5 -13z" />
<glyph unicode="&#xb8;" horiz-adv-x="973" d="M459 -500q-87 0 -141 27.5t-85 69.5l115 86q13 -16 34 -27.5t50 -11.5q48 0 73 21t25 59q0 37 -26 58t-74 21q-25 0 -46.5 -7t-41.5 -21l-55 67l147 178h144l-72 -114q60 0 103.5 -14t72 -39t42 -59t13.5 -73q0 -48 -18.5 -88.5t-54 -70t-87 -46t-118.5 -16.5z" />
<glyph unicode="&#xb9;" horiz-adv-x="459" d="M125 909v635h-105v170q35 0 60 4t42.5 12t29.5 19t20 25h178v-865h-225z" />
<glyph unicode="&#xba;" horiz-adv-x="952" d="M477 559q-90 0 -163 30.5t-124.5 88.5t-79.5 141.5t-28 188.5t28 188.5t79.5 141.5t124.5 89t163 31q91 0 163.5 -31t123.5 -89t78.5 -141.5t27.5 -188.5t-27.5 -188.5t-78.5 -141.5t-123.5 -88.5t-163.5 -30.5zM477 770q82 0 129 62.5t47 175.5q0 112 -47 176.5 t-129 64.5q-83 0 -129.5 -64.5t-46.5 -176.5q0 -113 46.5 -175.5t129.5 -62.5z" />
<glyph unicode="&#xbb;" horiz-adv-x="1151" d="M492 0l311 524l-311 523h286l312 -523l-312 -524h-286zM31 0l311 524l-311 523h286l312 -523l-312 -524h-286z" />
<glyph unicode="&#xbc;" horiz-adv-x="1473" d="M28 -25l979 1483h256l-979 -1483h-256zM125 580v634h-105v170q35 0 60 4t42.5 12t29.5 19t20 25h178v-864h-225zM1102 0v164h-420v147l424 553h205v-512h115v-188h-115v-164h-209zM1102 352v238l-180 -238h180z" />
<glyph unicode="&#xbd;" horiz-adv-x="1554" d="M28 -25l979 1483h256l-979 -1483h-256zM125 580v634h-105v170q35 0 60 4t42.5 12t29.5 19t20 25h178v-864h-225zM848 623q17 57 47 104t71.5 80.5t94.5 52.5t115 19q68 0 123.5 -19.5t95 -55t61 -84.5t21.5 -108q0 -60 -18 -103t-48.5 -75t-71.5 -56t-87 -48 q-51 -28 -87 -57.5t-53 -63.5h363v-209h-629q0 100 23 179t63.5 140.5t95.5 107.5t119 79l35.5 20t31 22t21.5 25.5t8 30.5q0 29 -19.5 49.5t-57.5 20.5q-47 0 -74 -26.5t-41 -74.5z" />
<glyph unicode="&#xbe;" horiz-adv-x="1712" d="M268 -25l979 1483h256l-979 -1483h-256zM53 1253q40 97 119 151t184 54q65 0 116 -20t86.5 -54t54 -78.5t18.5 -93.5q0 -32 -9 -60t-24 -52t-34.5 -42t-41.5 -30q63 -23 100 -72.5t37 -124.5q0 -58 -20.5 -107t-60.5 -84t-97.5 -55t-132.5 -20q-121 0 -203.5 66.5 t-119.5 185.5l206 53q14 -54 45.5 -79t73.5 -25t65 23.5t23 58.5q0 37 -25 59.5t-85 22.5h-78v188h76q46 0 65 21t19 49q0 29 -19 49t-53 20q-40 0 -61 -19.5t-35 -53.5zM1341 0v164h-420v147l424 553h205v-512h115v-188h-115v-164h-209zM1341 352v238l-180 -238h180z" />
<glyph unicode="&#xbf;" horiz-adv-x="1034" d="M668 662v-74q0 -95 -24.5 -160t-61 -112.5t-79.5 -81.5t-79.5 -67.5t-61 -70.5t-24.5 -90q0 -35 11.5 -64t34 -50.5t56 -33.5t76.5 -12q102 0 156.5 63t54.5 179h266q0 -120 -35 -212.5t-98 -156t-151 -96.5t-193 -33q-108 0 -191 32t-139.5 88.5t-85 132.5t-28.5 163 q0 84 24.5 142.5t61 101.5t79 77t79 71t61 82t24.5 110v72h267zM532 733q-37 0 -68.5 13.5t-55 36.5t-37 54t-13.5 66t13.5 66t37 53.5t55 35.5t68.5 13t68.5 -13t55 -35.5t36.5 -53.5t13 -66t-13 -66t-36.5 -54t-55 -36.5t-68.5 -13.5z" />
<glyph unicode="&#xc0;" horiz-adv-x="1520" d="M1147 0l-111 297h-553l-110 -297h-297l549 1434h270l549 -1434h-297zM805 922q-11 26 -23.5 62t-21.5 67q-8 -31 -21 -67t-24 -62l-142 -373h373zM781 1569l-365 319h332l291 -319h-258z" />
<glyph unicode="&#xc1;" horiz-adv-x="1520" d="M1147 0l-111 297h-553l-110 -297h-297l549 1434h270l549 -1434h-297zM805 922q-11 26 -23.5 62t-21.5 67q-8 -31 -21 -67t-24 -62l-142 -373h373zM739 1569h-258l291 319h332z" />
<glyph unicode="&#xc2;" horiz-adv-x="1520" d="M1147 0l-111 297h-553l-110 -297h-297l549 1434h270l549 -1434h-297zM805 922q-11 26 -23.5 62t-21.5 67q-8 -31 -21 -67t-24 -62l-142 -373h373zM931 1569l-172 141l-172 -141h-245l290 319h256l289 -319h-246z" />
<glyph unicode="&#xc3;" horiz-adv-x="1520" d="M1147 0l-111 297h-553l-110 -297h-297l549 1434h270l549 -1434h-297zM805 922q-11 26 -23.5 62t-21.5 67q-8 -31 -21 -67t-24 -62l-142 -373h373zM923 1583q-54 0 -99.5 14.5t-85.5 32.5t-77 32.5t-76 14.5q-38 0 -65.5 -19.5t-30.5 -66.5h-125q0 61 12 113t39.5 90 t73 59t111.5 21q54 0 99.5 -14.5t85.5 -32.5t77 -32.5t76 -14.5q38 0 65.5 19.5t30.5 66.5h125q0 -62 -12 -113.5t-40 -89.5t-73 -59t-111 -21z" />
<glyph unicode="&#xc4;" horiz-adv-x="1520" d="M1147 0l-111 297h-553l-110 -297h-297l549 1434h270l549 -1434h-297zM805 922q-11 26 -23.5 62t-21.5 67q-8 -31 -21 -67t-24 -62l-142 -373h373zM565 1579q-32 0 -59 11.5t-47.5 31.5t-32 47t-11.5 59q0 31 11.5 58.5t32 48t47.5 32t59 11.5q31 0 58.5 -11.5t47.5 -32 t31.5 -48t11.5 -58.5q0 -32 -11.5 -59t-31.5 -47t-47.5 -31.5t-58.5 -11.5zM954 1579q-32 0 -59 11.5t-47.5 31.5t-32 47t-11.5 59q0 31 11.5 58.5t32 48t47.5 32t59 11.5q31 0 58.5 -11.5t47.5 -32t31.5 -48t11.5 -58.5q0 -32 -11.5 -59t-31.5 -47t-47.5 -31.5t-58.5 -11.5 z" />
<glyph unicode="&#xc5;" horiz-adv-x="1520" d="M1147 0l-111 297h-553l-110 -297h-297l502 1315q-39 35 -61.5 85t-22.5 107q0 55 21 102.5t57 83t84.5 56t103.5 20.5q54 0 102.5 -20.5t85 -56t57.5 -83t21 -102.5q0 -57 -23 -107t-63 -85l504 -1315h-297zM805 922q-11 26 -23.5 62t-21.5 67q-8 -31 -21 -67t-24 -62 l-142 -373h373zM760 1425q32 0 56 23.5t24 58.5t-24 58.5t-56 23.5q-34 0 -57 -23.5t-23 -58.5t23 -58.5t57 -23.5z" />
<glyph unicode="&#xc6;" horiz-adv-x="1851" d="M805 0v297h-371l-168 -297h-297l832 1434h895v-263h-615v-301h326v-262h-326v-346h658v-262h-934zM805 549v409q-9 -24 -21.5 -49l-27.5 -53l-174 -307h223z" />
<glyph unicode="&#xc7;" horiz-adv-x="1352" d="M719 -500q-87 0 -140.5 27.5t-84.5 69.5l114 86q13 -16 34 -27.5t50 -11.5q48 0 73.5 21t25.5 59q0 37 -26.5 58t-74.5 21q-25 0 -46.5 -7t-41.5 -21l-55 67l115 140q-98 9 -175.5 44t-136.5 89t-100 123.5t-67 148t-38 162.5t-12 168q0 82 14 168.5t43.5 168.5t77 155 t114 128t154.5 87t199 32q103 0 187 -28t148 -73.5t108.5 -103.5t68.5 -118l-248 -113q-26 40 -53 72t-58 53.5t-68.5 33t-84.5 11.5q-60 0 -107 -20.5t-82 -55.5t-59 -82t-39 -99.5t-21.5 -108t-6.5 -107.5q0 -84 18 -168t56 -152t97.5 -110.5t143.5 -42.5q44 0 81 13.5 t68.5 37.5t59 58t51.5 75l254 -96q-31 -72 -72.5 -132t-95.5 -105.5t-120.5 -74.5t-147.5 -38l-47 -76q60 0 103.5 -14t72 -39t42 -59t13.5 -73q0 -48 -18.5 -88.5t-54 -70t-87 -46t-118.5 -16.5z" />
<glyph unicode="&#xc8;" horiz-adv-x="1319" d="M184 0v1434h979v-263h-702v-301h413v-262h-413v-346h745v-262h-1022zM670 1569l-365 319h332l291 -319h-258z" />
<glyph unicode="&#xc9;" horiz-adv-x="1319" d="M184 0v1434h979v-263h-702v-301h413v-262h-413v-346h745v-262h-1022zM708 1569h-258l291 319h332z" />
<glyph unicode="&#xca;" horiz-adv-x="1319" d="M184 0v1434h979v-263h-702v-301h413v-262h-413v-346h745v-262h-1022zM860 1569l-172 141l-172 -141h-245l290 319h256l289 -319h-246z" />
<glyph unicode="&#xcb;" horiz-adv-x="1319" d="M184 0v1434h979v-263h-702v-301h413v-262h-413v-346h745v-262h-1022zM496 1579q-32 0 -59 11.5t-47.5 31.5t-32 47t-11.5 59q0 31 11.5 58.5t32 48t47.5 32t59 11.5q31 0 58.5 -11.5t47.5 -32t31.5 -48t11.5 -58.5q0 -32 -11.5 -59t-31.5 -47t-47.5 -31.5t-58.5 -11.5z M885 1579q-32 0 -59 11.5t-47.5 31.5t-32 47t-11.5 59q0 31 11.5 58.5t32 48t47.5 32t59 11.5q31 0 58.5 -11.5t47.5 -32t31.5 -48t11.5 -58.5q0 -32 -11.5 -59t-31.5 -47t-47.5 -31.5t-58.5 -11.5z" />
<glyph unicode="&#xcc;" horiz-adv-x="666" d="M195 0v1434h276v-1434h-276zM354 1569l-365 319h332l291 -319h-258z" />
<glyph unicode="&#xcd;" horiz-adv-x="666" d="M195 0v1434h276v-1434h-276zM312 1569h-258l291 319h332z" />
<glyph unicode="&#xce;" horiz-adv-x="666" d="M195 0v1434h276v-1434h-276zM504 1569l-172 141l-172 -141h-245l290 319h256l289 -319h-246z" />
<glyph unicode="&#xcf;" horiz-adv-x="666" d="M195 0v1434h276v-1434h-276zM138 1579q-32 0 -59 11.5t-47.5 31.5t-32 47t-11.5 59q0 31 11.5 58.5t32 48t47.5 32t59 11.5q31 0 58.5 -11.5t47.5 -32t31.5 -48t11.5 -58.5q0 -32 -11.5 -59t-31.5 -47t-47.5 -31.5t-58.5 -11.5zM527 1579q-32 0 -59 11.5t-47.5 31.5 t-32 47t-11.5 59q0 31 11.5 58.5t32 48t47.5 32t59 11.5q31 0 58.5 -11.5t47.5 -32t31.5 -48t11.5 -58.5q0 -32 -11.5 -59t-31.5 -47t-47.5 -31.5t-58.5 -11.5z" />
<glyph unicode="&#xd0;" horiz-adv-x="1495" d="M184 588h-127v258h127v588h484q125 0 225 -28.5t177.5 -78.5t132.5 -118.5t90.5 -148t52 -167.5t16.5 -176q0 -82 -15.5 -167.5t-49.5 -165t-88.5 -149.5t-133 -122.5t-181.5 -82.5t-235 -30h-475v588zM692 262q107 0 180 41.5t118 107t65 146.5t20 160q0 84 -21 165.5 t-64.5 145.5t-112 103.5t-162.5 39.5h-254v-325h293v-258h-293v-326h231z" />
<glyph unicode="&#xd1;" horiz-adv-x="1511" d="M1081 0l-569 836q-14 21 -30.5 51.5t-28.5 56.5q3 -23 4.5 -54t1.5 -54v-836h-275v1434h260l555 -826q13 -20 30 -50t30 -58q-3 29 -4.5 58.5t-1.5 49.5v826h274v-1434h-246zM936 1583q-54 0 -99.5 14.5t-85.5 32.5t-77 32.5t-76 14.5q-38 0 -65.5 -19.5t-30.5 -66.5 h-125q0 61 12 113t39.5 90t73 59t111.5 21q54 0 99.5 -14.5t85.5 -32.5t77 -32.5t76 -14.5q38 0 65.5 19.5t30.5 66.5h125q0 -62 -12 -113.5t-40 -89.5t-73 -59t-111 -21z" />
<glyph unicode="&#xd2;" horiz-adv-x="1530" d="M766 -25q-116 0 -208 30.5t-162.5 83t-120.5 124t-81.5 154t-46 172t-14.5 178.5q0 88 14.5 177.5t46 172t81.5 154t120.5 124t162.5 83t208 30.5t207.5 -30.5t161.5 -83t120 -124t81.5 -154t46 -172t14.5 -177.5q0 -89 -14.5 -178.5t-46 -172t-81.5 -154t-120 -124 t-161.5 -83t-207.5 -30.5zM766 242q96 0 161.5 45t106 115t58.5 153.5t18 161.5q0 55 -7.5 111.5t-24.5 109t-44 99t-65 81t-88.5 54.5t-114.5 20q-65 0 -115.5 -21t-89 -56.5t-65.5 -82.5t-44 -100t-24.5 -108t-7.5 -107q0 -82 18 -166.5t58.5 -153t106.5 -112t163 -43.5z M746 1569l-365 319h332l291 -319h-258z" />
<glyph unicode="&#xd3;" horiz-adv-x="1530" d="M766 -25q-116 0 -208 30.5t-162.5 83t-120.5 124t-81.5 154t-46 172t-14.5 178.5q0 88 14.5 177.5t46 172t81.5 154t120.5 124t162.5 83t208 30.5t207.5 -30.5t161.5 -83t120 -124t81.5 -154t46 -172t14.5 -177.5q0 -89 -14.5 -178.5t-46 -172t-81.5 -154t-120 -124 t-161.5 -83t-207.5 -30.5zM766 242q96 0 161.5 45t106 115t58.5 153.5t18 161.5q0 55 -7.5 111.5t-24.5 109t-44 99t-65 81t-88.5 54.5t-114.5 20q-65 0 -115.5 -21t-89 -56.5t-65.5 -82.5t-44 -100t-24.5 -108t-7.5 -107q0 -82 18 -166.5t58.5 -153t106.5 -112t163 -43.5z M786 1569h-258l291 319h332z" />
<glyph unicode="&#xd4;" horiz-adv-x="1530" d="M766 -25q-116 0 -208 30.5t-162.5 83t-120.5 124t-81.5 154t-46 172t-14.5 178.5q0 88 14.5 177.5t46 172t81.5 154t120.5 124t162.5 83t208 30.5t207.5 -30.5t161.5 -83t120 -124t81.5 -154t46 -172t14.5 -177.5q0 -89 -14.5 -178.5t-46 -172t-81.5 -154t-120 -124 t-161.5 -83t-207.5 -30.5zM766 242q96 0 161.5 45t106 115t58.5 153.5t18 161.5q0 55 -7.5 111.5t-24.5 109t-44 99t-65 81t-88.5 54.5t-114.5 20q-65 0 -115.5 -21t-89 -56.5t-65.5 -82.5t-44 -100t-24.5 -108t-7.5 -107q0 -82 18 -166.5t58.5 -153t106.5 -112t163 -43.5z M938 1569l-172 141l-172 -141h-245l290 319h256l289 -319h-246z" />
<glyph unicode="&#xd5;" horiz-adv-x="1530" d="M766 -25q-116 0 -208 30.5t-162.5 83t-120.5 124t-81.5 154t-46 172t-14.5 178.5q0 88 14.5 177.5t46 172t81.5 154t120.5 124t162.5 83t208 30.5t207.5 -30.5t161.5 -83t120 -124t81.5 -154t46 -172t14.5 -177.5q0 -89 -14.5 -178.5t-46 -172t-81.5 -154t-120 -124 t-161.5 -83t-207.5 -30.5zM766 242q96 0 161.5 45t106 115t58.5 153.5t18 161.5q0 55 -7.5 111.5t-24.5 109t-44 99t-65 81t-88.5 54.5t-114.5 20q-65 0 -115.5 -21t-89 -56.5t-65.5 -82.5t-44 -100t-24.5 -108t-7.5 -107q0 -82 18 -166.5t58.5 -153t106.5 -112t163 -43.5z M926 1583q-54 0 -99.5 14.5t-85.5 32.5t-77 32.5t-76 14.5q-38 0 -65.5 -19.5t-30.5 -66.5h-125q0 61 12 113t39.5 90t73 59t111.5 21q54 0 99.5 -14.5t85.5 -32.5t77 -32.5t76 -14.5q38 0 65.5 19.5t30.5 66.5h125q0 -62 -12 -113.5t-40 -89.5t-73 -59t-111 -21z" />
<glyph unicode="&#xd6;" horiz-adv-x="1530" d="M766 -25q-116 0 -208 30.5t-162.5 83t-120.5 124t-81.5 154t-46 172t-14.5 178.5q0 88 14.5 177.5t46 172t81.5 154t120.5 124t162.5 83t208 30.5t207.5 -30.5t161.5 -83t120 -124t81.5 -154t46 -172t14.5 -177.5q0 -89 -14.5 -178.5t-46 -172t-81.5 -154t-120 -124 t-161.5 -83t-207.5 -30.5zM766 242q96 0 161.5 45t106 115t58.5 153.5t18 161.5q0 55 -7.5 111.5t-24.5 109t-44 99t-65 81t-88.5 54.5t-114.5 20q-65 0 -115.5 -21t-89 -56.5t-65.5 -82.5t-44 -100t-24.5 -108t-7.5 -107q0 -82 18 -166.5t58.5 -153t106.5 -112t163 -43.5z M572 1579q-32 0 -59 11.5t-47.5 31.5t-32 47t-11.5 59q0 31 11.5 58.5t32 48t47.5 32t59 11.5q31 0 58.5 -11.5t47.5 -32t31.5 -48t11.5 -58.5q0 -32 -11.5 -59t-31.5 -47t-47.5 -31.5t-58.5 -11.5zM961 1579q-32 0 -59 11.5t-47.5 31.5t-32 47t-11.5 59q0 31 11.5 58.5 t32 48t47.5 32t59 11.5q31 0 58.5 -11.5t47.5 -32t31.5 -48t11.5 -58.5q0 -32 -11.5 -59t-31.5 -47t-47.5 -31.5t-58.5 -11.5z" />
<glyph unicode="&#xd7;" horiz-adv-x="1290" d="M647 514l-303 -305l-192 194l303 302l-301 303l186 186l303 -301l301 303l195 -192l-305 -304l303 -301l-189 -188z" />
<glyph unicode="&#xd8;" horiz-adv-x="1530" d="M133 -25l152 226q-40 53 -69 114.5t-47.5 128t-27 136t-8.5 137.5q0 88 14.5 177.5t46 172t81.5 154t120.5 124t162.5 83t208 30.5q94 0 172 -20t143 -58l54 78h262l-152 -225q40 -53 69 -114.5t47.5 -128t27 -136t8.5 -137.5q0 -89 -14.5 -178.5t-46 -172t-81.5 -154 t-120 -124t-161.5 -83t-207.5 -30.5q-96 0 -175 20.5t-142 57.5l-54 -78h-262zM420 717q0 -63 10 -128t33 -124l463 684q-34 20 -73 31.5t-87 11.5q-65 0 -115.5 -21t-89 -56.5t-65.5 -82.5t-44 -100t-24.5 -108t-7.5 -107zM766 242q96 0 161.5 45t106 115t58.5 153.5 t18 161.5q0 63 -10 128t-33 124l-463 -684q32 -20 72 -31.5t90 -11.5z" />
<glyph unicode="&#xd9;" horiz-adv-x="1503" d="M752 -25q-73 0 -144.5 12.5t-135.5 40.5t-118.5 72.5t-94.5 108.5t-62.5 148t-22.5 192v885h277v-885q0 -89 20.5 -148.5t59.5 -94.5t95 -49.5t126 -14.5q69 0 124.5 14.5t95 49.5t60.5 94.5t21 148.5v885h276v-885q0 -160 -48 -269.5t-128.5 -177t-184.5 -97.5t-216 -30 zM770 1569l-365 319h332l291 -319h-258z" />
<glyph unicode="&#xda;" horiz-adv-x="1503" d="M752 -25q-73 0 -144.5 12.5t-135.5 40.5t-118.5 72.5t-94.5 108.5t-62.5 148t-22.5 192v885h277v-885q0 -89 20.5 -148.5t59.5 -94.5t95 -49.5t126 -14.5q69 0 124.5 14.5t95 49.5t60.5 94.5t21 148.5v885h276v-885q0 -160 -48 -269.5t-128.5 -177t-184.5 -97.5t-216 -30 zM770 1569h-258l291 319h332z" />
<glyph unicode="&#xdb;" horiz-adv-x="1503" d="M752 -25q-73 0 -144.5 12.5t-135.5 40.5t-118.5 72.5t-94.5 108.5t-62.5 148t-22.5 192v885h277v-885q0 -89 20.5 -148.5t59.5 -94.5t95 -49.5t126 -14.5q69 0 124.5 14.5t95 49.5t60.5 94.5t21 148.5v885h276v-885q0 -160 -48 -269.5t-128.5 -177t-184.5 -97.5t-216 -30 zM921 1569l-172 141l-172 -141h-245l290 319h256l289 -319h-246z" />
<glyph unicode="&#xdc;" horiz-adv-x="1503" d="M752 -25q-73 0 -144.5 12.5t-135.5 40.5t-118.5 72.5t-94.5 108.5t-62.5 148t-22.5 192v885h277v-885q0 -89 20.5 -148.5t59.5 -94.5t95 -49.5t126 -14.5q69 0 124.5 14.5t95 49.5t60.5 94.5t21 148.5v885h276v-885q0 -160 -48 -269.5t-128.5 -177t-184.5 -97.5t-216 -30 zM555 1579q-32 0 -59 11.5t-47.5 31.5t-32 47t-11.5 59q0 31 11.5 58.5t32 48t47.5 32t59 11.5q31 0 58.5 -11.5t47.5 -32t31.5 -48t11.5 -58.5q0 -32 -11.5 -59t-31.5 -47t-47.5 -31.5t-58.5 -11.5zM944 1579q-32 0 -59 11.5t-47.5 31.5t-32 47t-11.5 59q0 31 11.5 58.5 t32 48t47.5 32t59 11.5q31 0 58.5 -11.5t47.5 -32t31.5 -48t11.5 -58.5q0 -32 -11.5 -59t-31.5 -47t-47.5 -31.5t-58.5 -11.5z" />
<glyph unicode="&#xdd;" horiz-adv-x="1458" d="M592 0v559l-531 875h314l354 -586l354 586h314l-531 -875v-559h-274zM751 1569h-258l291 319h332z" />
<glyph unicode="&#xde;" horiz-adv-x="1370" d="M184 0v1434h277v-252h340q136 0 229 -39.5t150.5 -104t82.5 -145.5t25 -164q0 -78 -27 -159t-85.5 -146t-151 -106.5t-223.5 -41.5h-340v-276h-277zM811 539q53 0 89 17t58.5 44t32.5 61t10 68q0 31 -8.5 64.5t-30 61.5t-58.5 46.5t-93 18.5h-350v-381h350z" />
<glyph unicode="&#xdf;" horiz-adv-x="1178" d="M668 -25q-72 0 -126.5 13t-92.5 35l118 194q25 -8 43 -10t41 -2q34 0 66 15t57 44t40 70.5t15 95.5q0 43 -13.5 85t-42.5 75t-74 53.5t-107 20.5h-76v229h76q35 0 65 13t52 36t34.5 54.5t12.5 68.5q0 34 -11 63.5t-32 52t-51.5 35.5t-69.5 13q-45 0 -81 -14.5t-61 -46 t-38 -81.5t-13 -122v-1250l-266 -125v1371q0 135 38 229.5t102 154t146 86.5t171 27q97 0 176.5 -27t136.5 -76t88 -119t31 -155q0 -48 -11.5 -92.5t-34.5 -82t-59.5 -68t-85.5 -50.5q61 -17 110.5 -49.5t83.5 -78.5t52.5 -103t18.5 -123q0 -113 -33.5 -199t-91 -143.5 t-135.5 -87t-168 -29.5z" />
<glyph unicode="&#xe0;" horiz-adv-x="1143" d="M748 0v76q-18 -19 -43.5 -37t-59.5 -32.5t-75.5 -23t-92.5 -8.5q-81 0 -151 22t-122 66t-82 108.5t-30 150.5q0 90 36 155.5t94.5 108t133 62.5t152.5 20q75 0 133.5 -13.5t106.5 -36.5v54q0 86 -49 126t-140 40q-93 0 -171 -27t-152 -78l-82 215q37 25 83.5 47.5 t100.5 39.5t115.5 26.5t128.5 9.5q47 0 97 -5t97.5 -20t90 -43t74.5 -72.5t50.5 -109t18.5 -153.5v-668h-262zM528 209q73 0 127 25.5t93 60.5v113q-41 15 -91.5 24.5t-103.5 9.5q-41 0 -77.5 -6.5t-64 -21t-43.5 -37.5t-16 -55q0 -51 45 -82t131 -31zM605 1180l-365 319 h332l291 -319h-258z" />
<glyph unicode="&#xe1;" horiz-adv-x="1143" d="M748 0v76q-18 -19 -43.5 -37t-59.5 -32.5t-75.5 -23t-92.5 -8.5q-81 0 -151 22t-122 66t-82 108.5t-30 150.5q0 90 36 155.5t94.5 108t133 62.5t152.5 20q75 0 133.5 -13.5t106.5 -36.5v54q0 86 -49 126t-140 40q-93 0 -171 -27t-152 -78l-82 215q37 25 83.5 47.5 t100.5 39.5t115.5 26.5t128.5 9.5q47 0 97 -5t97.5 -20t90 -43t74.5 -72.5t50.5 -109t18.5 -153.5v-668h-262zM528 209q73 0 127 25.5t93 60.5v113q-41 15 -91.5 24.5t-103.5 9.5q-41 0 -77.5 -6.5t-64 -21t-43.5 -37.5t-16 -55q0 -51 45 -82t131 -31zM563 1180h-258 l291 319h332z" />
<glyph unicode="&#xe2;" horiz-adv-x="1143" d="M748 0v76q-18 -19 -43.5 -37t-59.5 -32.5t-75.5 -23t-92.5 -8.5q-81 0 -151 22t-122 66t-82 108.5t-30 150.5q0 90 36 155.5t94.5 108t133 62.5t152.5 20q75 0 133.5 -13.5t106.5 -36.5v54q0 86 -49 126t-140 40q-93 0 -171 -27t-152 -78l-82 215q37 25 83.5 47.5 t100.5 39.5t115.5 26.5t128.5 9.5q47 0 97 -5t97.5 -20t90 -43t74.5 -72.5t50.5 -109t18.5 -153.5v-668h-262zM528 209q73 0 127 25.5t93 60.5v113q-41 15 -91.5 24.5t-103.5 9.5q-41 0 -77.5 -6.5t-64 -21t-43.5 -37.5t-16 -55q0 -51 45 -82t131 -31zM755 1180l-172 141 l-172 -141h-245l290 319h256l289 -319h-246z" />
<glyph unicode="&#xe3;" horiz-adv-x="1143" d="M748 0v76q-18 -19 -43.5 -37t-59.5 -32.5t-75.5 -23t-92.5 -8.5q-81 0 -151 22t-122 66t-82 108.5t-30 150.5q0 90 36 155.5t94.5 108t133 62.5t152.5 20q75 0 133.5 -13.5t106.5 -36.5v54q0 86 -49 126t-140 40q-93 0 -171 -27t-152 -78l-82 215q37 25 83.5 47.5 t100.5 39.5t115.5 26.5t128.5 9.5q47 0 97 -5t97.5 -20t90 -43t74.5 -72.5t50.5 -109t18.5 -153.5v-668h-262zM528 209q73 0 127 25.5t93 60.5v113q-41 15 -91.5 24.5t-103.5 9.5q-41 0 -77.5 -6.5t-64 -21t-43.5 -37.5t-16 -55q0 -51 45 -82t131 -31zM745 1194 q-54 0 -99.5 14.5t-85.5 32.5t-77 32.5t-76 14.5q-38 0 -65.5 -19.5t-30.5 -66.5h-125q0 61 12 113t39.5 90t73 59t111.5 21q54 0 99.5 -14.5t85.5 -32.5t77 -32.5t76 -14.5q38 0 65.5 19.5t30.5 66.5h125q0 -62 -12 -113.5t-40 -89.5t-73 -59t-111 -21z" />
<glyph unicode="&#xe4;" horiz-adv-x="1143" d="M748 0v76q-18 -19 -43.5 -37t-59.5 -32.5t-75.5 -23t-92.5 -8.5q-81 0 -151 22t-122 66t-82 108.5t-30 150.5q0 90 36 155.5t94.5 108t133 62.5t152.5 20q75 0 133.5 -13.5t106.5 -36.5v54q0 86 -49 126t-140 40q-93 0 -171 -27t-152 -78l-82 215q37 25 83.5 47.5 t100.5 39.5t115.5 26.5t128.5 9.5q47 0 97 -5t97.5 -20t90 -43t74.5 -72.5t50.5 -109t18.5 -153.5v-668h-262zM528 209q73 0 127 25.5t93 60.5v113q-41 15 -91.5 24.5t-103.5 9.5q-41 0 -77.5 -6.5t-64 -21t-43.5 -37.5t-16 -55q0 -51 45 -82t131 -31zM389 1190 q-32 0 -59 11.5t-47.5 31.5t-32 47t-11.5 59q0 31 11.5 58.5t32 48t47.5 32t59 11.5q31 0 58.5 -11.5t47.5 -32t31.5 -48t11.5 -58.5q0 -32 -11.5 -59t-31.5 -47t-47.5 -31.5t-58.5 -11.5zM778 1190q-32 0 -59 11.5t-47.5 31.5t-32 47t-11.5 59q0 31 11.5 58.5t32 48 t47.5 32t59 11.5q31 0 58.5 -11.5t47.5 -32t31.5 -48t11.5 -58.5q0 -32 -11.5 -59t-31.5 -47t-47.5 -31.5t-58.5 -11.5z" />
<glyph unicode="&#xe5;" horiz-adv-x="1143" d="M748 0v76q-18 -19 -43.5 -37t-59.5 -32.5t-75.5 -23t-92.5 -8.5q-81 0 -151 22t-122 66t-82 108.5t-30 150.5q0 90 36 155.5t94.5 108t133 62.5t152.5 20q75 0 133.5 -13.5t106.5 -36.5v54q0 86 -49 126t-140 40q-93 0 -171 -27t-152 -78l-82 215q37 25 83.5 47.5 t100.5 39.5t115.5 26.5t128.5 9.5q47 0 97 -5t97.5 -20t90 -43t74.5 -72.5t50.5 -109t18.5 -153.5v-668h-262zM528 209q73 0 127 25.5t93 60.5v113q-41 15 -91.5 24.5t-103.5 9.5q-41 0 -77.5 -6.5t-64 -21t-43.5 -37.5t-16 -55q0 -51 45 -82t131 -31zM583 1329 q32 0 56 23.5t24 58.5t-24 58.5t-56 23.5q-34 0 -56.5 -23.5t-22.5 -58.5t22.5 -58.5t56.5 -23.5zM583 1147q-54 0 -102.5 21t-85 57t-57.5 84t-21 102q0 55 21 103t57.5 83.5t85 56t102.5 20.5q55 0 103.5 -20.5t85 -56t57.5 -83.5t21 -103q0 -54 -21 -102t-57.5 -84 t-85 -57t-103.5 -21z" />
<glyph unicode="&#xe6;" horiz-adv-x="1753" d="M1196 -25q-121 0 -215 43.5t-156 124.5q-83 -92 -179 -130t-193 -38q-75 0 -141 22t-115 66t-77 108.5t-28 150.5q0 92 34 158t88.5 109t124.5 63t142 20q71 0 126 -13t100 -36v49q0 86 -45 126t-130 40t-156.5 -27t-139.5 -78l-82 215q36 25 80 47.5t95.5 39.5 t109.5 26.5t122 9.5q41 0 84.5 -4.5t85.5 -17t79.5 -35t66.5 -58.5q55 56 137.5 85.5t181.5 29.5q97 0 182 -30t148 -91t99 -153.5t36 -218.5q0 -31 -3 -72t-11 -86h-678q4 -51 24 -90t50.5 -66t69.5 -41t83 -14q72 0 126 25.5t99 82.5l164 -165q-66 -81 -162 -129t-227 -48 zM510 209q65 0 114 25.5t83 60.5v113q-36 15 -82 24.5t-93 9.5q-37 0 -69.5 -6.5t-57 -21t-39 -37.5t-14.5 -55q0 -51 40.5 -82t117.5 -31zM1196 838q-94 0 -153.5 -47t-71.5 -146h428q-13 93 -67.5 143t-135.5 50z" />
<glyph unicode="&#xe7;" horiz-adv-x="1120" d="M543 -500q-87 0 -141 27.5t-85 69.5l115 86q13 -16 34 -27.5t50 -11.5q48 0 73 21t25 59q0 37 -26 58t-74 21q-25 0 -46.5 -7t-41.5 -21l-55 67l116 142q-89 13 -160 56t-121 112t-77 162.5t-27 207.5q0 128 34 230t96 173t150.5 108.5t197.5 37.5q160 0 272.5 -73.5 t163.5 -233.5l-254 -84q-23 60 -68 97.5t-108 37.5q-49 0 -88.5 -21t-67 -59t-42.5 -92t-15 -121t15 -120.5t42 -91.5t65 -58.5t85 -20.5q68 0 115 39t69 113l254 -76q-43 -152 -140 -234t-243 -96l-45 -71q60 0 103.5 -14t72 -39t42 -59t13.5 -73q0 -48 -18.5 -88.5 t-54 -70t-87 -46t-118.5 -16.5z" />
<glyph unicode="&#xe8;" horiz-adv-x="1147" d="M592 -25q-114 0 -204.5 37.5t-154 108.5t-97.5 173t-34 230t34 229.5t98 172t154.5 108t203.5 37.5q97 0 182 -30t147 -91t98 -153.5t36 -218.5q0 -31 -1 -73.5t-7 -84.5h-682q4 -51 24 -90t50.5 -66t69.5 -41t83 -14q72 0 126 25.5t99 82.5l164 -165q-66 -81 -162 -129 t-227 -48zM592 838q-94 0 -153.5 -47t-71.5 -146h428q-13 93 -68 143t-135 50zM613 1180l-365 319h332l291 -319h-258z" />
<glyph unicode="&#xe9;" horiz-adv-x="1147" d="M592 -25q-114 0 -204.5 37.5t-154 108.5t-97.5 173t-34 230t34 229.5t98 172t154.5 108t203.5 37.5q97 0 182 -30t147 -91t98 -153.5t36 -218.5q0 -31 -1 -73.5t-7 -84.5h-682q4 -51 24 -90t50.5 -66t69.5 -41t83 -14q72 0 126 25.5t99 82.5l164 -165q-66 -81 -162 -129 t-227 -48zM592 838q-94 0 -153.5 -47t-71.5 -146h428q-13 93 -68 143t-135 50zM573 1180h-258l291 319h332z" />
<glyph unicode="&#xea;" horiz-adv-x="1147" d="M592 -25q-114 0 -204.5 37.5t-154 108.5t-97.5 173t-34 230t34 229.5t98 172t154.5 108t203.5 37.5q97 0 182 -30t147 -91t98 -153.5t36 -218.5q0 -31 -1 -73.5t-7 -84.5h-682q4 -51 24 -90t50.5 -66t69.5 -41t83 -14q72 0 126 25.5t99 82.5l164 -165q-66 -81 -162 -129 t-227 -48zM592 838q-94 0 -153.5 -47t-71.5 -146h428q-13 93 -68 143t-135 50zM766 1180l-172 141l-172 -141h-245l290 319h256l289 -319h-246z" />
<glyph unicode="&#xeb;" horiz-adv-x="1147" d="M592 -25q-114 0 -204.5 37.5t-154 108.5t-97.5 173t-34 230t34 229.5t98 172t154.5 108t203.5 37.5q97 0 182 -30t147 -91t98 -153.5t36 -218.5q0 -31 -1 -73.5t-7 -84.5h-682q4 -51 24 -90t50.5 -66t69.5 -41t83 -14q72 0 126 25.5t99 82.5l164 -165q-66 -81 -162 -129 t-227 -48zM592 838q-94 0 -153.5 -47t-71.5 -146h428q-13 93 -68 143t-135 50zM400 1190q-32 0 -59 11.5t-47.5 31.5t-32 47t-11.5 59q0 31 11.5 58.5t32 48t47.5 32t59 11.5q31 0 58.5 -11.5t47.5 -32t31.5 -48t11.5 -58.5q0 -32 -11.5 -59t-31.5 -47t-47.5 -31.5 t-58.5 -11.5zM789 1190q-32 0 -59 11.5t-47.5 31.5t-32 47t-11.5 59q0 31 11.5 58.5t32 48t47.5 32t59 11.5q31 0 58.5 -11.5t47.5 -32t31.5 -48t11.5 -58.5q0 -32 -11.5 -59t-31.5 -47t-47.5 -31.5t-58.5 -11.5z" />
<glyph unicode="&#xec;" horiz-adv-x="578" d="M272 1180l-365 319h332l291 -319h-258zM156 0v1047h266v-1047h-266z" />
<glyph unicode="&#xed;" horiz-adv-x="578" d="M310 1180h-258l291 319h332zM156 0v1047h266v-1047h-266z" />
<glyph unicode="&#xee;" horiz-adv-x="578" d="M156 0v1047h266v-1047h-266zM461 1180l-172 141l-172 -141h-245l290 319h256l289 -319h-246z" />
<glyph unicode="&#xef;" horiz-adv-x="578" d="M95 1190q-32 0 -59 11.5t-47.5 31.5t-32 47t-11.5 59q0 31 11.5 58.5t32 48t47.5 32t59 11.5q31 0 58.5 -11.5t47.5 -32t31.5 -48t11.5 -58.5q0 -32 -11.5 -59t-31.5 -47t-47.5 -31.5t-58.5 -11.5zM484 1190q-32 0 -59 11.5t-47.5 31.5t-32 47t-11.5 59q0 31 11.5 58.5 t32 48t47.5 32t59 11.5q31 0 58.5 -11.5t47.5 -32t31.5 -48t11.5 -58.5q0 -32 -11.5 -59t-31.5 -47t-47.5 -31.5t-58.5 -11.5zM156 0v1047h266v-1047h-266z" />
<glyph unicode="&#xf0;" horiz-adv-x="1167" d="M584 -25q-104 0 -192 36t-152.5 100t-101 151.5t-36.5 190.5q0 97 33.5 184.5t94 153.5t145.5 104.5t188 38.5q57 0 107 -16.5t88 -45.5q-7 30 -20 61.5t-30.5 61t-38 55.5t-42.5 46l-119 -123l-148 137l82 84q-40 12 -85 19.5t-93 7.5v237q110 0 199.5 -19.5 t161.5 -52.5l116 121l146 -139l-90 -94q70 -61 120.5 -141.5t83.5 -174.5t48.5 -198t15.5 -211q0 -119 -29 -223.5t-88.5 -182.5t-150 -123t-213.5 -45zM584 231q45 0 84.5 17t68.5 46.5t45.5 69.5t16.5 87q0 51 -16.5 92.5t-45.5 71.5t-68.5 46.5t-86.5 16.5q-46 0 -85 -16 t-67.5 -45t-44.5 -71t-16 -93q0 -48 17 -88.5t46 -70t68 -46.5t84 -17z" />
<glyph unicode="&#xf1;" d="M801 0v614q0 53 -14 91t-39 62.5t-58 36t-72 11.5q-41 0 -77 -10.5t-63 -34t-42.5 -61t-15.5 -91.5v-618h-266v1047h266v-99q48 59 118.5 91t161.5 32q67 0 133 -20t118 -68t84 -127t32 -197v-659h-266zM768 1194q-54 0 -99.5 14.5t-85.5 32.5t-77 32.5t-76 14.5 q-38 0 -65.5 -19.5t-30.5 -66.5h-125q0 61 12 113t39.5 90t73 59t111.5 21q54 0 99.5 -14.5t85.5 -32.5t77 -32.5t76 -14.5q38 0 65.5 19.5t30.5 66.5h125q0 -62 -12 -113.5t-40 -89.5t-73 -59t-111 -21z" />
<glyph unicode="&#xf2;" horiz-adv-x="1167" d="M584 -25q-111 0 -200 37.5t-151.5 108t-96.5 172t-34 229.5t34 230t96.5 173t151.5 108.5t200 37.5t200 -37.5t151.5 -108.5t96 -173t33.5 -230t-33.5 -229.5t-96 -172t-151.5 -108t-200 -37.5zM584 231q50 0 90 20t67.5 57.5t42.5 91.5t15 122q0 69 -15 123t-42.5 92 t-67.5 58t-90 20t-90 -20t-67.5 -58t-42.5 -92t-15 -123q0 -68 15 -122t42.5 -91.5t67.5 -57.5t90 -20zM602 1180l-365 319h332l291 -319h-258z" />
<glyph unicode="&#xf3;" horiz-adv-x="1167" d="M584 -25q-111 0 -200 37.5t-151.5 108t-96.5 172t-34 229.5t34 230t96.5 173t151.5 108.5t200 37.5t200 -37.5t151.5 -108.5t96 -173t33.5 -230t-33.5 -229.5t-96 -172t-151.5 -108t-200 -37.5zM584 231q50 0 90 20t67.5 57.5t42.5 91.5t15 122q0 69 -15 123t-42.5 92 t-67.5 58t-90 20t-90 -20t-67.5 -58t-42.5 -92t-15 -123q0 -68 15 -122t42.5 -91.5t67.5 -57.5t90 -20zM561 1180h-258l291 319h332z" />
<glyph unicode="&#xf4;" horiz-adv-x="1167" d="M584 -25q-111 0 -200 37.5t-151.5 108t-96.5 172t-34 229.5t34 230t96.5 173t151.5 108.5t200 37.5t200 -37.5t151.5 -108.5t96 -173t33.5 -230t-33.5 -229.5t-96 -172t-151.5 -108t-200 -37.5zM584 231q50 0 90 20t67.5 57.5t42.5 91.5t15 122q0 69 -15 123t-42.5 92 t-67.5 58t-90 20t-90 -20t-67.5 -58t-42.5 -92t-15 -123q0 -68 15 -122t42.5 -91.5t67.5 -57.5t90 -20zM753 1180l-172 141l-172 -141h-245l290 319h256l289 -319h-246z" />
<glyph unicode="&#xf5;" horiz-adv-x="1167" d="M584 -25q-111 0 -200 37.5t-151.5 108t-96.5 172t-34 229.5t34 230t96.5 173t151.5 108.5t200 37.5t200 -37.5t151.5 -108.5t96 -173t33.5 -230t-33.5 -229.5t-96 -172t-151.5 -108t-200 -37.5zM584 231q50 0 90 20t67.5 57.5t42.5 91.5t15 122q0 69 -15 123t-42.5 92 t-67.5 58t-90 20t-90 -20t-67.5 -58t-42.5 -92t-15 -123q0 -68 15 -122t42.5 -91.5t67.5 -57.5t90 -20zM743 1194q-54 0 -99.5 14.5t-85.5 32.5t-77 32.5t-76 14.5q-38 0 -65.5 -19.5t-30.5 -66.5h-125q0 61 12 113t39.5 90t73 59t111.5 21q54 0 99.5 -14.5t85.5 -32.5 t77 -32.5t76 -14.5q38 0 65.5 19.5t30.5 66.5h125q0 -62 -12 -113.5t-40 -89.5t-73 -59t-111 -21z" />
<glyph unicode="&#xf6;" horiz-adv-x="1167" d="M584 -25q-111 0 -200 37.5t-151.5 108t-96.5 172t-34 229.5t34 230t96.5 173t151.5 108.5t200 37.5t200 -37.5t151.5 -108.5t96 -173t33.5 -230t-33.5 -229.5t-96 -172t-151.5 -108t-200 -37.5zM584 231q50 0 90 20t67.5 57.5t42.5 91.5t15 122q0 69 -15 123t-42.5 92 t-67.5 58t-90 20t-90 -20t-67.5 -58t-42.5 -92t-15 -123q0 -68 15 -122t42.5 -91.5t67.5 -57.5t90 -20zM387 1190q-32 0 -59 11.5t-47.5 31.5t-32 47t-11.5 59q0 31 11.5 58.5t32 48t47.5 32t59 11.5q31 0 58.5 -11.5t47.5 -32t31.5 -48t11.5 -58.5q0 -32 -11.5 -59 t-31.5 -47t-47.5 -31.5t-58.5 -11.5zM776 1190q-32 0 -59 11.5t-47.5 31.5t-32 47t-11.5 59q0 31 11.5 58.5t32 48t47.5 32t59 11.5q31 0 58.5 -11.5t47.5 -32t31.5 -48t11.5 -58.5q0 -32 -11.5 -59t-31.5 -47t-47.5 -31.5t-58.5 -11.5z" />
<glyph unicode="&#xf7;" horiz-adv-x="1290" d="M164 573v258h962v-258h-962zM645 913q-34 0 -63 12.5t-50.5 33.5t-34 49.5t-12.5 60.5t12.5 60.5t34 49.5t50.5 33.5t63 12.5t63 -12.5t50.5 -33.5t34 -49.5t12.5 -60.5t-12.5 -60.5t-34 -49.5t-50.5 -33.5t-63 -12.5zM645 180q-34 0 -63 12.5t-50.5 33.5t-34 49.5 t-12.5 60.5t12.5 60.5t34 49.5t50.5 33.5t63 12.5t63 -12.5t50.5 -33.5t34 -49.5t12.5 -60.5t-12.5 -60.5t-34 -49.5t-50.5 -33.5t-63 -12.5z" />
<glyph unicode="&#xf8;" horiz-adv-x="1169" d="M102 -25l111 168q-54 70 -82.5 165.5t-28.5 213.5q0 128 34 230t96.5 173t151.5 108.5t200 37.5q60 0 114 -11.5t101 -33.5l28 45h240l-113 -170q54 -71 82.5 -165.5t28.5 -213.5q0 -128 -33.5 -229.5t-96 -172t-151.5 -108t-200 -37.5q-60 0 -113.5 11.5t-99.5 31.5 l-29 -43h-240zM584 231q50 0 90 20t67.5 57.5t42.5 91.5t15 122q0 34 -4 67.5t-11 55.5l-266 -403q16 -7 31.5 -9t34.5 -2zM369 522q0 -34 4 -65.5t10 -57.5l268 406q-12 5 -31 7.5t-36 2.5q-50 0 -90 -20t-67.5 -58t-42.5 -92t-15 -123z" />
<glyph unicode="&#xf9;" d="M791 0v98q-48 -59 -119 -91t-162 -32q-67 0 -132.5 20.5t-117.5 68.5t-84.5 127t-32.5 196v660h267v-615q0 -53 14 -91t38.5 -62.5t57.5 -36t72 -11.5q41 0 77.5 10.5t63.5 34t42.5 61t15.5 91.5v619h266v-1047h-266zM615 1180l-365 319h332l291 -319h-258z" />
<glyph unicode="&#xfa;" d="M791 0v98q-48 -59 -119 -91t-162 -32q-67 0 -132.5 20.5t-117.5 68.5t-84.5 127t-32.5 196v660h267v-615q0 -53 14 -91t38.5 -62.5t57.5 -36t72 -11.5q41 0 77.5 10.5t63.5 34t42.5 61t15.5 91.5v619h266v-1047h-266zM573 1180h-258l291 319h332z" />
<glyph unicode="&#xfb;" d="M791 0v98q-48 -59 -119 -91t-162 -32q-67 0 -132.5 20.5t-117.5 68.5t-84.5 127t-32.5 196v660h267v-615q0 -53 14 -91t38.5 -62.5t57.5 -36t72 -11.5q41 0 77.5 10.5t63.5 34t42.5 61t15.5 91.5v619h266v-1047h-266zM766 1180l-172 141l-172 -141h-245l290 319h256 l289 -319h-246z" />
<glyph unicode="&#xfc;" d="M791 0v98q-48 -59 -119 -91t-162 -32q-67 0 -132.5 20.5t-117.5 68.5t-84.5 127t-32.5 196v660h267v-615q0 -53 14 -91t38.5 -62.5t57.5 -36t72 -11.5q41 0 77.5 10.5t63.5 34t42.5 61t15.5 91.5v619h266v-1047h-266zM400 1190q-32 0 -59 11.5t-47.5 31.5t-32 47 t-11.5 59q0 31 11.5 58.5t32 48t47.5 32t59 11.5q31 0 58.5 -11.5t47.5 -32t31.5 -48t11.5 -58.5q0 -32 -11.5 -59t-31.5 -47t-47.5 -31.5t-58.5 -11.5zM789 1190q-32 0 -59 11.5t-47.5 31.5t-32 47t-11.5 59q0 31 11.5 58.5t32 48t47.5 32t59 11.5q31 0 58.5 -11.5 t47.5 -32t31.5 -48t11.5 -58.5q0 -32 -11.5 -59t-31.5 -47t-47.5 -31.5t-58.5 -11.5z" />
<glyph unicode="&#xfd;" horiz-adv-x="1167" d="M561 -397h-276l159 411l-393 1033h273l229 -605q18 -47 31 -96q6 25 14 49l16 47l230 605h272zM567 1180h-258l291 319h332z" />
<glyph unicode="&#xfe;" horiz-adv-x="1169" d="M633 -25q-78 0 -133.5 28t-89.5 73v-355l-267 -124v1734l267 127v-487q34 45 90 72.5t135 27.5q97 0 177 -36t136.5 -105.5t87.5 -172t31 -235.5q0 -128 -32.5 -229.5t-90.5 -172t-137.5 -108t-173.5 -37.5zM592 231q100 0 154.5 75.5t54.5 215.5q0 67 -13.5 121t-40 92 t-65.5 59t-90 21q-65 0 -109 -22t-73 -62v-414q10 -15 27 -30.5t40 -28t52 -20t63 -7.5z" />
<glyph unicode="&#xff;" horiz-adv-x="1167" d="M561 -397h-276l159 411l-393 1033h273l229 -605q18 -47 31 -96q6 25 14 49l16 47l230 605h272zM391 1190q-32 0 -59 11.5t-47.5 31.5t-32 47t-11.5 59q0 31 11.5 58.5t32 48t47.5 32t59 11.5q31 0 58.5 -11.5t47.5 -32t31.5 -48t11.5 -58.5q0 -32 -11.5 -59t-31.5 -47 t-47.5 -31.5t-58.5 -11.5zM780 1190q-32 0 -59 11.5t-47.5 31.5t-32 47t-11.5 59q0 31 11.5 58.5t32 48t47.5 32t59 11.5q31 0 58.5 -11.5t47.5 -32t31.5 -48t11.5 -58.5q0 -32 -11.5 -59t-31.5 -47t-47.5 -31.5t-58.5 -11.5z" />
<glyph unicode="&#x100;" horiz-adv-x="1520" d="M1147 0l-111 297h-553l-110 -297h-297l549 1434h270l549 -1434h-297zM805 922q-11 26 -23.5 62t-21.5 67q-8 -31 -21 -67t-24 -62l-142 -373h373zM421 1591v217h676v-217h-676z" />
<glyph unicode="&#x101;" horiz-adv-x="1143" d="M748 0v76q-18 -19 -43.5 -37t-59.5 -32.5t-75.5 -23t-92.5 -8.5q-81 0 -151 22t-122 66t-82 108.5t-30 150.5q0 90 36 155.5t94.5 108t133 62.5t152.5 20q75 0 133.5 -13.5t106.5 -36.5v54q0 86 -49 126t-140 40q-93 0 -171 -27t-152 -78l-82 215q37 25 83.5 47.5 t100.5 39.5t115.5 26.5t128.5 9.5q47 0 97 -5t97.5 -20t90 -43t74.5 -72.5t50.5 -109t18.5 -153.5v-668h-262zM528 209q73 0 127 25.5t93 60.5v113q-41 15 -91.5 24.5t-103.5 9.5q-41 0 -77.5 -6.5t-64 -21t-43.5 -37.5t-16 -55q0 -51 45 -82t131 -31zM245 1202v217h676 v-217h-676z" />
<glyph unicode="&#x102;" horiz-adv-x="1520" d="M1147 0l-111 297h-553l-110 -297h-297l549 1434h270l549 -1434h-297zM805 922q-11 26 -23.5 62t-21.5 67q-8 -31 -21 -67t-24 -62l-142 -373h373zM759 1560q-101 0 -174 29t-121 77t-71 111t-23 132h205q0 -29 10.5 -57t32.5 -50t57 -35.5t84 -13.5t84.5 13.5t58 35.5 t33.5 50t11 57h205q0 -69 -23.5 -132.5t-71.5 -111.5t-122 -76.5t-175 -28.5z" />
<glyph unicode="&#x103;" horiz-adv-x="1143" d="M748 0v76q-18 -19 -43.5 -37t-59.5 -32.5t-75.5 -23t-92.5 -8.5q-81 0 -151 22t-122 66t-82 108.5t-30 150.5q0 90 36 155.5t94.5 108t133 62.5t152.5 20q75 0 133.5 -13.5t106.5 -36.5v54q0 86 -49 126t-140 40q-93 0 -171 -27t-152 -78l-82 215q37 25 83.5 47.5 t100.5 39.5t115.5 26.5t128.5 9.5q47 0 97 -5t97.5 -20t90 -43t74.5 -72.5t50.5 -109t18.5 -153.5v-668h-262zM528 209q73 0 127 25.5t93 60.5v113q-41 15 -91.5 24.5t-103.5 9.5q-41 0 -77.5 -6.5t-64 -21t-43.5 -37.5t-16 -55q0 -51 45 -82t131 -31zM583 1171 q-101 0 -174 29t-121 77t-71 111t-23 132h205q0 -29 10.5 -57t32.5 -50t57 -35.5t84 -13.5t84.5 13.5t58 35.5t33.5 50t11 57h205q0 -69 -23.5 -132.5t-71.5 -111.5t-122 -76.5t-175 -28.5z" />
<glyph unicode="&#x104;" horiz-adv-x="1520" d="M1176 -500q-58 0 -105 16t-80 45t-51 69.5t-18 90.5q0 91 59.5 162t165.5 117l-111 297h-553l-110 -297h-297l549 1434h270l549 -1434q-66 0 -122 -23t-96.5 -59.5t-63.5 -82.5t-23 -91q0 -48 23 -69t55 -21q27 0 47 11.5t32 27.5l123 -88q-15 -17 -36.5 -35.5t-50.5 -34 t-67.5 -25.5t-88.5 -10zM805 922q-11 26 -23.5 62t-21.5 67q-8 -31 -21 -67t-24 -62l-142 -373h373z" />
<glyph unicode="&#x105;" horiz-adv-x="1143" d="M772 -500q-58 0 -105 16t-80 45t-51 69.5t-18 90.5q0 93 60.5 164t169.5 117v74q-18 -19 -43.5 -37t-59.5 -32.5t-75.5 -23t-92.5 -8.5q-81 0 -151 22t-122 66t-82 108.5t-30 150.5q0 90 36 155.5t94.5 108t133 62.5t152.5 20q75 0 133.5 -13.5t106.5 -36.5v54 q0 86 -49 126t-140 40q-93 0 -171 -27t-152 -78l-82 215q37 25 83.5 47.5t100.5 39.5t115.5 26.5t128.5 9.5q47 0 97 -5t97.5 -20t90 -43t74.5 -72.5t50.5 -109t18.5 -153.5v-668q-48 -14 -97 -38t-88.5 -56.5t-64.5 -73t-25 -88.5t23 -69t55 -21q28 0 48 11.5t32 27.5 l123 -88q-15 -17 -36.5 -35.5t-51 -34t-68 -25.5t-88.5 -10zM528 209q73 0 127 25.5t93 60.5v113q-41 15 -91.5 24.5t-103.5 9.5q-41 0 -77.5 -6.5t-64 -21t-43.5 -37.5t-16 -55q0 -51 45 -82t131 -31z" />
<glyph unicode="&#x106;" horiz-adv-x="1352" d="M735 -23q-112 0 -200 30t-155 83t-114 124t-76.5 153.5t-43 171.5t-13.5 178q0 82 14 168.5t43.5 168.5t77 155t114 128t154.5 87t199 32q103 0 187 -28t148 -73.5t108.5 -103.5t68.5 -118l-248 -113q-26 40 -53 72t-58 53.5t-68.5 33t-84.5 11.5q-60 0 -107 -20.5 t-82 -55.5t-59 -82t-39 -99.5t-21.5 -108t-6.5 -107.5q0 -84 18 -168t56 -152t97.5 -110.5t143.5 -42.5q44 0 81 13.5t68.5 37.5t59 58t51.5 75l254 -96q-34 -79 -82 -144.5t-111.5 -112t-143.5 -72.5t-177 -26zM760 1569h-258l291 319h332z" />
<glyph unicode="&#x107;" horiz-adv-x="1120" d="M580 -25q-109 0 -197.5 37.5t-150.5 108t-96 172t-34 229.5t34 230t96 173t150.5 108.5t197.5 37.5q160 0 272.5 -73.5t163.5 -233.5l-254 -84q-23 60 -68 97.5t-108 37.5q-49 0 -88.5 -21t-67 -59t-42.5 -92t-15 -121t15 -120.5t42 -91.5t65 -58.5t85 -20.5q68 0 115 39 t69 113l254 -76q-47 -165 -157.5 -248.5t-280.5 -83.5zM567 1180h-258l291 319h332z" />
<glyph unicode="&#x108;" horiz-adv-x="1352" d="M735 -23q-112 0 -200 30t-155 83t-114 124t-76.5 153.5t-43 171.5t-13.5 178q0 82 14 168.5t43.5 168.5t77 155t114 128t154.5 87t199 32q103 0 187 -28t148 -73.5t108.5 -103.5t68.5 -118l-248 -113q-26 40 -53 72t-58 53.5t-68.5 33t-84.5 11.5q-60 0 -107 -20.5 t-82 -55.5t-59 -82t-39 -99.5t-21.5 -108t-6.5 -107.5q0 -84 18 -168t56 -152t97.5 -110.5t143.5 -42.5q44 0 81 13.5t68.5 37.5t59 58t51.5 75l254 -96q-34 -79 -82 -144.5t-111.5 -112t-143.5 -72.5t-177 -26zM911 1569l-172 141l-172 -141h-245l290 319h256l289 -319 h-246z" />
<glyph unicode="&#x109;" horiz-adv-x="1120" d="M580 -25q-109 0 -197.5 37.5t-150.5 108t-96 172t-34 229.5t34 230t96 173t150.5 108.5t197.5 37.5q160 0 272.5 -73.5t163.5 -233.5l-254 -84q-23 60 -68 97.5t-108 37.5q-49 0 -88.5 -21t-67 -59t-42.5 -92t-15 -121t15 -120.5t42 -91.5t65 -58.5t85 -20.5q68 0 115 39 t69 113l254 -76q-47 -165 -157.5 -248.5t-280.5 -83.5zM759 1180l-172 141l-172 -141h-245l290 319h256l289 -319h-246z" />
<glyph unicode="&#x10a;" horiz-adv-x="1352" d="M735 -23q-112 0 -200 30t-155 83t-114 124t-76.5 153.5t-43 171.5t-13.5 178q0 82 14 168.5t43.5 168.5t77 155t114 128t154.5 87t199 32q103 0 187 -28t148 -73.5t108.5 -103.5t68.5 -118l-248 -113q-26 40 -53 72t-58 53.5t-68.5 33t-84.5 11.5q-60 0 -107 -20.5 t-82 -55.5t-59 -82t-39 -99.5t-21.5 -108t-6.5 -107.5q0 -84 18 -168t56 -152t97.5 -110.5t143.5 -42.5q44 0 81 13.5t68.5 37.5t59 58t51.5 75l254 -96q-34 -79 -82 -144.5t-111.5 -112t-143.5 -72.5t-177 -26zM739 1579q-32 0 -59 11.5t-47 31.5t-31.5 47t-11.5 59 q0 31 11.5 58.5t31.5 48t47 32t59 11.5q31 0 58.5 -11.5t48 -32t32 -48t11.5 -58.5q0 -32 -11.5 -59t-32 -47t-48 -31.5t-58.5 -11.5z" />
<glyph unicode="&#x10b;" horiz-adv-x="1120" d="M580 -25q-109 0 -197.5 37.5t-150.5 108t-96 172t-34 229.5t34 230t96 173t150.5 108.5t197.5 37.5q160 0 272.5 -73.5t163.5 -233.5l-254 -84q-23 60 -68 97.5t-108 37.5q-49 0 -88.5 -21t-67 -59t-42.5 -92t-15 -121t15 -120.5t42 -91.5t65 -58.5t85 -20.5q68 0 115 39 t69 113l254 -76q-47 -165 -157.5 -248.5t-280.5 -83.5zM587 1190q-32 0 -59 11.5t-47 31.5t-31.5 47t-11.5 59q0 31 11.5 58.5t31.5 48t47 32t59 11.5q31 0 58.5 -11.5t48 -32t32 -48t11.5 -58.5q0 -32 -11.5 -59t-32 -47t-48 -31.5t-58.5 -11.5z" />
<glyph unicode="&#x10c;" horiz-adv-x="1352" d="M735 -23q-112 0 -200 30t-155 83t-114 124t-76.5 153.5t-43 171.5t-13.5 178q0 82 14 168.5t43.5 168.5t77 155t114 128t154.5 87t199 32q103 0 187 -28t148 -73.5t108.5 -103.5t68.5 -118l-248 -113q-26 40 -53 72t-58 53.5t-68.5 33t-84.5 11.5q-60 0 -107 -20.5 t-82 -55.5t-59 -82t-39 -99.5t-21.5 -108t-6.5 -107.5q0 -84 18 -168t56 -152t97.5 -110.5t143.5 -42.5q44 0 81 13.5t68.5 37.5t59 58t51.5 75l254 -96q-34 -79 -82 -144.5t-111.5 -112t-143.5 -72.5t-177 -26zM866 1569h-256l-288 319h245l172 -141l172 141h246z" />
<glyph unicode="&#x10d;" horiz-adv-x="1120" d="M580 -25q-109 0 -197.5 37.5t-150.5 108t-96 172t-34 229.5t34 230t96 173t150.5 108.5t197.5 37.5q160 0 272.5 -73.5t163.5 -233.5l-254 -84q-23 60 -68 97.5t-108 37.5q-49 0 -88.5 -21t-67 -59t-42.5 -92t-15 -121t15 -120.5t42 -91.5t65 -58.5t85 -20.5q68 0 115 39 t69 113l254 -76q-47 -165 -157.5 -248.5t-280.5 -83.5zM694 1180h-256l-288 319h245l172 -141l172 141h246z" />
<glyph unicode="&#x10e;" horiz-adv-x="1495" d="M184 1434h484q125 0 225 -28.5t177.5 -78.5t132.5 -118.5t90.5 -148t52 -167.5t16.5 -176q0 -82 -15.5 -167.5t-49.5 -165t-88.5 -149.5t-133 -122.5t-181.5 -82.5t-235 -30h-475v1434zM692 262q107 0 180 41.5t118 107t65 146.5t20 160q0 84 -21 165.5t-64.5 145.5 t-112 103.5t-162.5 39.5h-254v-909h231zM802 1569h-256l-288 319h245l172 -141l172 141h246z" />
<glyph unicode="&#x10f;" horiz-adv-x="1542" d="M535 -25q-98 0 -178 36t-136.5 105.5t-87.5 172t-31 235.5q0 128 33 229.5t91 172t137.5 108t173.5 37.5q77 0 133 -27.5t90 -72.5v387l266 121v-1479h-266v76q-32 -48 -88.5 -74.5t-136.5 -26.5zM578 231q65 0 109 22t73 62v414q-10 15 -27 30.5t-40.5 28t-52 20 t-62.5 7.5q-101 0 -155 -75t-54 -216q0 -67 13.5 -121t40 -92.5t65.5 -59t90 -20.5zM1491 1459v-16q0 -86 -16.5 -159t-46 -135.5t-71 -116.5t-91.5 -103l-86 65q14 28 25.5 77t20 110.5t13 132.5t4.5 145h248z" />
<glyph unicode="&#x110;" horiz-adv-x="1495" d="M184 588h-127v258h127v588h484q125 0 225 -28.5t177.5 -78.5t132.5 -118.5t90.5 -148t52 -167.5t16.5 -176q0 -82 -15.5 -167.5t-49.5 -165t-88.5 -149.5t-133 -122.5t-181.5 -82.5t-235 -30h-475v588zM692 262q107 0 180 41.5t118 107t65 146.5t20 160q0 84 -21 165.5 t-64.5 145.5t-112 103.5t-162.5 39.5h-254v-325h293v-258h-293v-326h231z" />
<glyph unicode="&#x111;" horiz-adv-x="1180" d="M1026 1100v-1100h-266v76q-32 -48 -88.5 -74.5t-136.5 -26.5q-98 0 -178 35.5t-136.5 102t-87.5 162.5t-31 217q0 116 33 210.5t91 162t137.5 104.5t173.5 37q77 0 133 -28t90 -73v195h-238v205h238v53l266 121v-174h133v-205h-133zM578 231q65 0 109 22t73 62v349 q-10 15 -27 30.5t-40.5 28t-52 20t-62.5 7.5q-50 0 -89 -19t-65.5 -53t-40.5 -81.5t-14 -104.5q0 -55 13.5 -102.5t40 -83t65.5 -55.5t90 -20z" />
<glyph unicode="&#x112;" horiz-adv-x="1319" d="M184 0v1434h979v-263h-702v-301h413v-262h-413v-346h745v-262h-1022zM352 1591v217h676v-217h-676z" />
<glyph unicode="&#x113;" horiz-adv-x="1147" d="M592 -25q-114 0 -204.5 37.5t-154 108.5t-97.5 173t-34 230t34 229.5t98 172t154.5 108t203.5 37.5q97 0 182 -30t147 -91t98 -153.5t36 -218.5q0 -31 -1 -73.5t-7 -84.5h-682q4 -51 24 -90t50.5 -66t69.5 -41t83 -14q72 0 126 25.5t99 82.5l164 -165q-66 -81 -162 -129 t-227 -48zM592 838q-94 0 -153.5 -47t-71.5 -146h428q-13 93 -68 143t-135 50zM256 1202v217h676v-217h-676z" />
<glyph unicode="&#x114;" horiz-adv-x="1319" d="M184 0v1434h979v-263h-702v-301h413v-262h-413v-346h745v-262h-1022zM690 1560q-101 0 -174 29t-121 77t-71 111t-23 132h205q0 -29 10.5 -57t32.5 -50t57 -35.5t84 -13.5t84.5 13.5t58 35.5t33.5 50t11 57h205q0 -69 -23.5 -132.5t-71.5 -111.5t-122 -76.5t-175 -28.5z " />
<glyph unicode="&#x115;" horiz-adv-x="1147" d="M592 -25q-114 0 -204.5 37.5t-154 108.5t-97.5 173t-34 230t34 229.5t98 172t154.5 108t203.5 37.5q97 0 182 -30t147 -91t98 -153.5t36 -218.5q0 -31 -1 -73.5t-7 -84.5h-682q4 -51 24 -90t50.5 -66t69.5 -41t83 -14q72 0 126 25.5t99 82.5l164 -165q-66 -81 -162 -129 t-227 -48zM592 838q-94 0 -153.5 -47t-71.5 -146h428q-13 93 -68 143t-135 50zM594 1171q-101 0 -174 29t-121 77t-71 111t-23 132h205q0 -29 10.5 -57t32.5 -50t57 -35.5t84 -13.5t84.5 13.5t58 35.5t33.5 50t11 57h205q0 -69 -23.5 -132.5t-71.5 -111.5t-122 -76.5 t-175 -28.5z" />
<glyph unicode="&#x116;" horiz-adv-x="1319" d="M184 0v1434h979v-263h-702v-301h413v-262h-413v-346h745v-262h-1022zM690 1579q-32 0 -59 11.5t-47 31.5t-31.5 47t-11.5 59q0 31 11.5 58.5t31.5 48t47 32t59 11.5q31 0 58.5 -11.5t48 -32t32 -48t11.5 -58.5q0 -32 -11.5 -59t-32 -47t-48 -31.5t-58.5 -11.5z" />
<glyph unicode="&#x117;" horiz-adv-x="1147" d="M592 -25q-114 0 -204.5 37.5t-154 108.5t-97.5 173t-34 230t34 229.5t98 172t154.5 108t203.5 37.5q97 0 182 -30t147 -91t98 -153.5t36 -218.5q0 -31 -1 -73.5t-7 -84.5h-682q4 -51 24 -90t50.5 -66t69.5 -41t83 -14q72 0 126 25.5t99 82.5l164 -165q-66 -81 -162 -129 t-227 -48zM592 838q-94 0 -153.5 -47t-71.5 -146h428q-13 93 -68 143t-135 50zM594 1190q-32 0 -59 11.5t-47 31.5t-31.5 47t-11.5 59q0 31 11.5 58.5t31.5 48t47 32t59 11.5q31 0 58.5 -11.5t48 -32t32 -48t11.5 -58.5q0 -32 -11.5 -59t-32 -47t-48 -31.5t-58.5 -11.5z" />
<glyph unicode="&#x118;" horiz-adv-x="1319" d="M903 -500q-57 0 -104 16t-80.5 45t-51.5 69.5t-18 90.5q0 91 59.5 162.5t165.5 116.5h-690v1434h979v-263h-702v-301h413v-262h-413v-346h745v-262h-47q-66 0 -120 -24.5t-92.5 -62t-59.5 -82.5t-21 -87q0 -48 23 -69t55 -21q28 0 48 11.5t32 27.5l123 -88 q-15 -17 -36.5 -35.5t-51 -34t-68 -25.5t-88.5 -10z" />
<glyph unicode="&#x119;" horiz-adv-x="1147" d="M606 -500q-57 0 -104 16t-80.5 45t-51.5 69.5t-18 90.5q0 81 47.5 145.5t141.5 110.5q-104 9 -185.5 51t-138 112.5t-86 167t-29.5 216.5q0 128 34 229.5t98 172t154.5 108t203.5 37.5q97 0 182 -30t147 -91t98 -153.5t36 -218.5q0 -31 -1 -73.5t-7 -84.5h-682 q4 -51 24 -90t50.5 -66t69.5 -41t83 -14q72 0 126 25.5t99 82.5l164 -165q-35 -44 -79 -76.5t-89.5 -60l-89.5 -53t-78 -56.5t-55 -69.5t-21 -92.5q0 -48 23 -69t55 -21q28 0 48 11.5t32 27.5l123 -88q-15 -17 -36.5 -35.5t-51 -34t-68 -25.5t-88.5 -10zM592 838 q-94 0 -153.5 -47t-71.5 -146h428q-13 93 -68 143t-135 50z" />
<glyph unicode="&#x11a;" horiz-adv-x="1319" d="M184 0v1434h979v-263h-702v-301h413v-262h-413v-346h745v-262h-1022zM817 1569h-256l-288 319h245l172 -141l172 141h246z" />
<glyph unicode="&#x11b;" horiz-adv-x="1147" d="M592 -25q-114 0 -204.5 37.5t-154 108.5t-97.5 173t-34 230t34 229.5t98 172t154.5 108t203.5 37.5q97 0 182 -30t147 -91t98 -153.5t36 -218.5q0 -31 -1 -73.5t-7 -84.5h-682q4 -51 24 -90t50.5 -66t69.5 -41t83 -14q72 0 126 25.5t99 82.5l164 -165q-66 -81 -162 -129 t-227 -48zM592 838q-94 0 -153.5 -47t-71.5 -146h428q-13 93 -68 143t-135 50zM721 1180h-256l-288 319h245l172 -141l172 141h246z" />
<glyph unicode="&#x11c;" horiz-adv-x="1419" d="M764 -25q-111 0 -201 29t-160 80t-121 121.5t-84 152.5t-49 173.5t-16 185.5q0 87 16.5 176t51 171.5t86 154.5t122 125t159 83.5t196.5 30.5q104 0 183.5 -26t141 -68.5t107 -98t82.5 -114.5l-244 -139q-24 36 -52 68.5t-60.5 57.5t-71.5 39.5t-86 14.5 q-67 0 -118 -20.5t-89.5 -56t-64.5 -82.5t-42 -100t-23 -108.5t-7 -107.5q0 -91 19 -176.5t60.5 -152t107 -106.5t157.5 -40q52 0 97.5 18.5t79.5 50t53.5 74.5t19.5 92v12h-244v263h526v-211q0 -138 -41 -243.5t-112.5 -177t-168.5 -108.5t-210 -37zM938 1569l-172 141 l-172 -141h-245l290 319h256l289 -319h-246z" />
<glyph unicode="&#x11d;" horiz-adv-x="1180" d="M385 -188q105 7 177 20t116 38t63 63t19 94v28q-47 -46 -105.5 -63t-119.5 -17q-95 0 -174 34.5t-137 103.5t-90 171.5t-32 239.5q0 128 31.5 229.5t89 172t137.5 108t177 37.5q140 0 223 -80v56h266v-916q0 -59 -5.5 -117.5t-18 -110.5t-32.5 -96t-50 -75 q-40 -40 -86 -65.5t-95.5 -41.5t-102 -23.5t-104.5 -11.5zM578 231q65 0 108 22t74 62v414q-12 15 -28 30.5t-38.5 28t-51 20t-64.5 7.5q-101 0 -155 -75t-54 -216q0 -64 12.5 -117.5t38.5 -92.5t65.5 -61t92.5 -22zM780 1180l-172 141l-172 -141h-245l290 319h256l289 -319 h-246z" />
<glyph unicode="&#x11e;" horiz-adv-x="1419" d="M764 -25q-111 0 -201 29t-160 80t-121 121.5t-84 152.5t-49 173.5t-16 185.5q0 87 16.5 176t51 171.5t86 154.5t122 125t159 83.5t196.5 30.5q104 0 183.5 -26t141 -68.5t107 -98t82.5 -114.5l-244 -139q-24 36 -52 68.5t-60.5 57.5t-71.5 39.5t-86 14.5 q-67 0 -118 -20.5t-89.5 -56t-64.5 -82.5t-42 -100t-23 -108.5t-7 -107.5q0 -91 19 -176.5t60.5 -152t107 -106.5t157.5 -40q52 0 97.5 18.5t79.5 50t53.5 74.5t19.5 92v12h-244v263h526v-211q0 -138 -41 -243.5t-112.5 -177t-168.5 -108.5t-210 -37zM766 1560 q-101 0 -174 29t-121 77t-71 111t-23 132h205q0 -29 10.5 -57t32.5 -50t57 -35.5t84 -13.5t84.5 13.5t58 35.5t33.5 50t11 57h205q0 -69 -23.5 -132.5t-71.5 -111.5t-122 -76.5t-175 -28.5z" />
<glyph unicode="&#x11f;" horiz-adv-x="1180" d="M385 -188q105 7 177 20t116 38t63 63t19 94v28q-47 -46 -105.5 -63t-119.5 -17q-95 0 -174 34.5t-137 103.5t-90 171.5t-32 239.5q0 128 31.5 229.5t89 172t137.5 108t177 37.5q140 0 223 -80v56h266v-916q0 -59 -5.5 -117.5t-18 -110.5t-32.5 -96t-50 -75 q-40 -40 -86 -65.5t-95.5 -41.5t-102 -23.5t-104.5 -11.5zM578 231q65 0 108 22t74 62v414q-12 15 -28 30.5t-38.5 28t-51 20t-64.5 7.5q-101 0 -155 -75t-54 -216q0 -64 12.5 -117.5t38.5 -92.5t65.5 -61t92.5 -22zM608 1171q-101 0 -174 29t-121 77t-71 111t-23 132h205 q0 -29 10.5 -57t32.5 -50t57 -35.5t84 -13.5t84.5 13.5t58 35.5t33.5 50t11 57h205q0 -69 -23.5 -132.5t-71.5 -111.5t-122 -76.5t-175 -28.5z" />
<glyph unicode="&#x120;" horiz-adv-x="1419" d="M764 -25q-111 0 -201 29t-160 80t-121 121.5t-84 152.5t-49 173.5t-16 185.5q0 87 16.5 176t51 171.5t86 154.5t122 125t159 83.5t196.5 30.5q104 0 183.5 -26t141 -68.5t107 -98t82.5 -114.5l-244 -139q-24 36 -52 68.5t-60.5 57.5t-71.5 39.5t-86 14.5 q-67 0 -118 -20.5t-89.5 -56t-64.5 -82.5t-42 -100t-23 -108.5t-7 -107.5q0 -91 19 -176.5t60.5 -152t107 -106.5t157.5 -40q52 0 97.5 18.5t79.5 50t53.5 74.5t19.5 92v12h-244v263h526v-211q0 -138 -41 -243.5t-112.5 -177t-168.5 -108.5t-210 -37zM770 1579 q-32 0 -59 11.5t-47 31.5t-31.5 47t-11.5 59q0 31 11.5 58.5t31.5 48t47 32t59 11.5q31 0 58.5 -11.5t48 -32t32 -48t11.5 -58.5q0 -32 -11.5 -59t-32 -47t-48 -31.5t-58.5 -11.5z" />
<glyph unicode="&#x121;" horiz-adv-x="1180" d="M385 -188q105 7 177 20t116 38t63 63t19 94v28q-47 -46 -105.5 -63t-119.5 -17q-95 0 -174 34.5t-137 103.5t-90 171.5t-32 239.5q0 128 31.5 229.5t89 172t137.5 108t177 37.5q140 0 223 -80v56h266v-916q0 -59 -5.5 -117.5t-18 -110.5t-32.5 -96t-50 -75 q-40 -40 -86 -65.5t-95.5 -41.5t-102 -23.5t-104.5 -11.5zM578 231q65 0 108 22t74 62v414q-12 15 -28 30.5t-38.5 28t-51 20t-64.5 7.5q-101 0 -155 -75t-54 -216q0 -64 12.5 -117.5t38.5 -92.5t65.5 -61t92.5 -22zM608 1190q-32 0 -59 11.5t-47 31.5t-31.5 47t-11.5 59 q0 31 11.5 58.5t31.5 48t47 32t59 11.5q31 0 58.5 -11.5t48 -32t32 -48t11.5 -58.5q0 -32 -11.5 -59t-32 -47t-48 -31.5t-58.5 -11.5z" />
<glyph unicode="&#x122;" horiz-adv-x="1419" d="M764 -25q-111 0 -201 29t-160 80t-121 121.5t-84 152.5t-49 173.5t-16 185.5q0 87 16.5 176t51 171.5t86 154.5t122 125t159 83.5t196.5 30.5q104 0 183.5 -26t141 -68.5t107 -98t82.5 -114.5l-244 -139q-24 36 -52 68.5t-60.5 57.5t-71.5 39.5t-86 14.5 q-67 0 -118 -20.5t-89.5 -56t-64.5 -82.5t-42 -100t-23 -108.5t-7 -107.5q0 -91 19 -176.5t60.5 -152t107 -106.5t157.5 -40q52 0 97.5 18.5t79.5 50t53.5 74.5t19.5 92v12h-244v263h526v-211q0 -138 -41 -243.5t-112.5 -177t-168.5 -108.5t-210 -37zM645 -516q35 34 62 70 t41 81q-26 0 -50 9.5t-42.5 27.5t-29.5 43.5t-11 57.5q0 35 12 63.5t32 49t47.5 31.5t59.5 11q69 0 113.5 -43t44.5 -125q0 -98 -44.5 -177t-141.5 -158z" />
<glyph unicode="&#x123;" horiz-adv-x="1180" d="M385 -188q105 7 177 20t116 38t63 63t19 94v28q-47 -46 -105.5 -63t-119.5 -17q-95 0 -174 34.5t-137 103.5t-90 171.5t-32 239.5q0 128 31.5 229.5t89 172t137.5 108t177 37.5q140 0 223 -80v56h266v-916q0 -59 -5.5 -117.5t-18 -110.5t-32.5 -96t-50 -75 q-40 -40 -86 -65.5t-95.5 -41.5t-102 -23.5t-104.5 -11.5zM578 231q65 0 108 22t74 62v414q-12 15 -28 30.5t-38.5 28t-51 20t-64.5 7.5q-101 0 -155 -75t-54 -216q0 -64 12.5 -117.5t38.5 -92.5t65.5 -61t92.5 -22zM731 1634q-34 -34 -61 -70t-41 -81q26 0 50 -9.5 t42.5 -27.5t29.5 -43.5t11 -56.5q0 -36 -12 -64.5t-32.5 -49t-48.5 -31.5t-59 -11q-69 0 -113 43t-44 125q0 98 44.5 177t141.5 159z" />
<glyph unicode="&#x124;" horiz-adv-x="1522" d="M1061 0v606h-600v-606h-277v1434h277v-566h600v566h276v-1434h-276zM864 1569l-172 141l-172 -141h-245l290 319h256l289 -319h-246z" />
<glyph unicode="&#x125;" d="M801 0v614q0 53 -14 91t-39 62.5t-58 36t-72 11.5q-41 0 -77 -10.5t-63 -34t-42.5 -61t-15.5 -91.5v-618h-266v1356l266 123v-531q48 59 118.5 91t161.5 32q67 0 133 -20t118 -68t84 -127t32 -197v-659h-266zM780 1567l-172 141l-172 -141h-245l290 319h256l289 -319 h-246z" />
<glyph unicode="&#x126;" horiz-adv-x="1522" d="M1061 0v606h-600v-606h-277v1018h-164v262h164v154h277v-154h600v154h276v-154h164v-262h-164v-1018h-276zM1061 868v150h-600v-150h600z" />
<glyph unicode="&#x127;" d="M801 0v553q0 53 -14 91t-39 62.5t-58 36t-72 11.5q-41 0 -77 -10.5t-63 -34t-42.5 -61t-15.5 -91.5v-557h-266v1100h-117v205h117v51l266 123v-174h270v-205h-270v-213q48 59 118.5 91t161.5 32q67 0 133 -20.5t118 -68.5t84 -127t32 -196v-598h-266z" />
<glyph unicode="&#x128;" horiz-adv-x="666" d="M195 0v1434h276v-1434h-276zM494 1583q-54 0 -99.5 14.5t-85.5 32.5t-77 32.5t-76 14.5q-38 0 -65.5 -19.5t-30.5 -66.5h-125q0 61 12 113t39.5 90t73 59t111.5 21q54 0 99.5 -14.5t85.5 -32.5t77 -32.5t76 -14.5q38 0 65.5 19.5t30.5 66.5h125q0 -62 -12 -113.5 t-40 -89.5t-73 -59t-111 -21z" />
<glyph unicode="&#x129;" horiz-adv-x="578" d="M451 1194q-54 0 -99.5 14.5t-85.5 32.5t-77 32.5t-76 14.5q-38 0 -65.5 -19.5t-30.5 -66.5h-125q0 61 12 113t39.5 90t73 59t111.5 21q54 0 99.5 -14.5t85.5 -32.5t77 -32.5t76 -14.5q38 0 65.5 19.5t30.5 66.5h125q0 -62 -12 -113.5t-40 -89.5t-73 -59t-111 -21zM156 0 v1047h266v-1047h-266z" />
<glyph unicode="&#x12a;" horiz-adv-x="666" d="M195 0v1434h276v-1434h-276zM-6 1591v217h676v-217h-676z" />
<glyph unicode="&#x12b;" horiz-adv-x="578" d="M-49 1202v217h676v-217h-676zM156 0v1047h266v-1047h-266z" />
<glyph unicode="&#x12c;" horiz-adv-x="666" d="M195 0v1434h276v-1434h-276zM332 1560q-101 0 -174 29t-121 77t-71 111t-23 132h205q0 -29 10.5 -57t32.5 -50t57 -35.5t84 -13.5t84.5 13.5t58 35.5t33.5 50t11 57h205q0 -69 -23.5 -132.5t-71.5 -111.5t-122 -76.5t-175 -28.5z" />
<glyph unicode="&#x12d;" horiz-adv-x="578" d="M289 1171q-101 0 -174 29t-121 77t-71 111t-23 132h205q0 -29 10.5 -57t32.5 -50t57 -35.5t84 -13.5t84.5 13.5t58 35.5t33.5 50t11 57h205q0 -69 -23.5 -132.5t-71.5 -111.5t-122 -76.5t-175 -28.5zM156 0v1047h266v-1047h-266z" />
<glyph unicode="&#x12e;" horiz-adv-x="666" d="M223 -500q-57 0 -104 16t-80.5 45t-51.5 69.5t-18 90.5q0 91 59.5 162.5t166.5 116.5v1434h276v-1434q-53 0 -104 -21.5t-91.5 -57.5t-65 -82t-24.5 -95q0 -48 23 -69t55 -21q28 0 48 11.5t32 27.5l123 -88q-15 -17 -36.5 -35.5t-51 -34t-68 -25.5t-88.5 -10z" />
<glyph unicode="&#x12f;" horiz-adv-x="565" d="M176 -500q-57 0 -104 16t-80.5 45t-51.5 69.5t-18 90.5q0 91 59.5 162.5t168.5 116.5v1047h266v-1047q-78 -18 -131.5 -48t-85.5 -65.5t-46 -73t-14 -69.5q0 -48 23 -69t55 -21q28 0 48 11.5t32 27.5l123 -88q-15 -17 -36.5 -35.5t-51 -34t-68 -25.5t-88.5 -10zM283 1169 q-32 0 -60.5 12.5t-49.5 33.5t-33.5 49.5t-12.5 60.5t12.5 60t33.5 49t49.5 33t60.5 12t60.5 -12t49.5 -33t33 -49t12 -60t-12 -60.5t-33 -49.5t-49.5 -33.5t-60.5 -12.5z" />
<glyph unicode="&#x130;" horiz-adv-x="666" d="M195 0v1434h276v-1434h-276zM332 1579q-32 0 -59 11.5t-47 31.5t-31.5 47t-11.5 59q0 31 11.5 58.5t31.5 48t47 32t59 11.5q31 0 58.5 -11.5t48 -32t32 -48t11.5 -58.5q0 -32 -11.5 -59t-32 -47t-48 -31.5t-58.5 -11.5z" />
<glyph unicode="&#x131;" horiz-adv-x="578" d="M156 0v1047h266v-1047h-266z" />
<glyph unicode="&#x132;" horiz-adv-x="1767" d="M195 0v1434h276v-1434h-276zM1101 -25q-78 0 -149.5 21.5t-133 62t-112 99t-86.5 133.5l242 112q40 -77 99.5 -119t139.5 -42q42 0 81 11.5t69 42.5t48 85.5t18 140.5v912h276v-936q0 -102 -21 -181t-57 -137t-84 -97.5t-103 -63t-113 -34t-114 -10.5z" />
<glyph unicode="&#x133;" horiz-adv-x="1085" d="M156 0v1047h266v-1047h-266zM289 1169q-32 0 -60.5 12.5t-49.5 33.5t-33.5 49.5t-12.5 60.5t12.5 60t33.5 49t49.5 33t60.5 12t60.5 -12t49.5 -33t33 -49t12 -60t-12 -60.5t-33 -49.5t-49.5 -33.5t-60.5 -12.5zM371 -227q81 18 137 37.5t90.5 45t50 58.5t15.5 78v1055 h266v-990q0 -45 -4 -89.5t-15 -87t-31 -81.5t-53 -73q-37 -39 -77.5 -66.5t-82 -46.5t-83 -31t-78.5 -20zM797 1169q-32 0 -60.5 12.5t-49.5 33.5t-33.5 49.5t-12.5 60.5t12.5 60t33.5 49t49.5 33t60.5 12t60.5 -12t49.5 -33t33 -49t12 -60t-12 -60.5t-33 -49.5t-49.5 -33.5 t-60.5 -12.5z" />
<glyph unicode="&#x134;" horiz-adv-x="1198" d="M532 -25q-78 0 -149.5 21.5t-133 62t-112 99t-86.5 133.5l242 112q40 -77 99.5 -119t139.5 -42q42 0 81 11.5t69 42.5t48 85.5t18 140.5v912h276v-936q0 -102 -21 -181t-57 -137t-84 -97.5t-103 -63t-113 -34t-114 -10.5zM1060 1569l-172 141l-172 -141h-245l290 319h256 l289 -319h-246z" />
<glyph unicode="&#x135;" horiz-adv-x="578" d="M-137 -227q81 18 137 37.5t90.5 45t50 58.5t15.5 78v1055h266v-990q0 -45 -4 -89.5t-15 -87t-31 -81.5t-53 -73q-37 -39 -77.5 -66.5t-82 -46.5t-83 -31t-78.5 -20zM461 1180l-172 141l-172 -141h-245l290 319h256l289 -319h-246z" />
<glyph unicode="&#x136;" horiz-adv-x="1501" d="M1096 0l-369 686l-266 -328v-358h-277v1434h277v-684l543 684h327l-418 -514l506 -920h-323zM647 -516q35 34 62 70t41 81q-26 0 -50 9.5t-42.5 27.5t-29.5 43.5t-11 57.5q0 35 12 63.5t32 49t47.5 31.5t59.5 11q69 0 113.5 -43t44.5 -125q0 -98 -44.5 -177t-141.5 -158z " />
<glyph unicode="&#x137;" horiz-adv-x="1159" d="M807 0l-289 553l-98 -94v-459h-266v1354l266 125v-717l280 285h320l-307 -304l385 -743h-291zM468 -516q35 34 62 70t41 81q-26 0 -50 9.5t-42.5 27.5t-29.5 43.5t-11 57.5q0 35 12 63.5t32 49t47.5 31.5t59.5 11q69 0 113.5 -43t44.5 -125q0 -98 -44.5 -177t-141.5 -158 z" />
<glyph unicode="&#x138;" horiz-adv-x="1122" d="M768 0l-238 442l-110 -133v-309h-266v1047h266v-390l311 390h291l-317 -392l356 -655h-293z" />
<glyph unicode="&#x139;" horiz-adv-x="1184" d="M184 0v1434h277v-1168h692v-266h-969zM351 1569h-258l291 319h332z" />
<glyph unicode="&#x13a;" horiz-adv-x="594" d="M164 0v1354l266 125v-1479h-266zM283 1549h-258l291 319h332z" />
<glyph unicode="&#x13b;" horiz-adv-x="1184" d="M184 0v1434h277v-1168h692v-266h-969zM548 -516q35 34 62 70t41 81q-26 0 -50 9.5t-42.5 27.5t-29.5 43.5t-11 57.5q0 35 12 63.5t32 49t47.5 31.5t59.5 11q69 0 113.5 -43t44.5 -125q0 -98 -44.5 -177t-141.5 -158z" />
<glyph unicode="&#x13c;" horiz-adv-x="594" d="M164 0v1354l266 125v-1479h-266zM175 -516q35 34 62 70t41 81q-26 0 -50 9.5t-42.5 27.5t-29.5 43.5t-11 57.5q0 35 12 63.5t32 49t47.5 31.5t59.5 11q69 0 113.5 -43t44.5 -125q0 -98 -44.5 -177t-141.5 -158z" />
<glyph unicode="&#x13d;" horiz-adv-x="1184" d="M184 0v1434h277v-1168h692v-266h-969zM455 1569h-256l-288 319h245l172 -141l172 141h246z" />
<glyph unicode="&#x13e;" horiz-adv-x="913" d="M164 0v1354l266 125v-1479h-266zM862 1459v-16q0 -86 -16.5 -159t-46 -135.5t-71 -116.5t-91.5 -103l-86 65q14 28 25.5 77t20 110.5t13 132.5t4.5 145h248z" />
<glyph unicode="&#x13f;" horiz-adv-x="1184" d="M184 0v1434h277v-1168h692v-266h-969zM903 566q-32 0 -59 11.5t-47 31.5t-31.5 47t-11.5 59q0 31 11.5 58.5t31.5 48t47 32t59 11.5q31 0 58.5 -11.5t48 -32t32 -48t11.5 -58.5q0 -32 -11.5 -59t-32 -47t-48 -31.5t-58.5 -11.5z" />
<glyph unicode="&#x140;" horiz-adv-x="854" d="M164 0v1354l266 125v-1479h-266zM723 497q-32 0 -59 11.5t-47 31.5t-31.5 47t-11.5 59q0 31 11.5 58.5t31.5 48t47 32t59 11.5q31 0 58.5 -11.5t48 -32t32 -48t11.5 -58.5q0 -32 -11.5 -59t-32 -47t-48 -31.5t-58.5 -11.5z" />
<glyph unicode="&#x141;" horiz-adv-x="1184" d="M184 0v428l-135 -104v303l135 102v705h277v-498l297 225v-301l-297 -223v-371h692v-266h-969z" />
<glyph unicode="&#x142;" horiz-adv-x="594" d="M162 0v428l-113 -86v264l113 86v662l266 125v-584l117 88v-264l-117 -88v-631h-266z" />
<glyph unicode="&#x143;" horiz-adv-x="1511" d="M1081 0l-569 836q-14 21 -30.5 51.5t-28.5 56.5q3 -23 4.5 -54t1.5 -54v-836h-275v1434h260l555 -826q13 -20 30 -50t30 -58q-3 29 -4.5 58.5t-1.5 49.5v826h274v-1434h-246zM797 1569h-258l291 319h332z" />
<glyph unicode="&#x144;" d="M801 0v614q0 53 -14 91t-39 62.5t-58 36t-72 11.5q-41 0 -77 -10.5t-63 -34t-42.5 -61t-15.5 -91.5v-618h-266v1047h266v-99q48 59 118.5 91t161.5 32q67 0 133 -20t118 -68t84 -127t32 -197v-659h-266zM588 1180h-258l291 319h332z" />
<glyph unicode="&#x145;" horiz-adv-x="1511" d="M1081 0l-569 836q-14 21 -30.5 51.5t-28.5 56.5q3 -23 4.5 -54t1.5 -54v-836h-275v1434h260l555 -826q13 -20 30 -50t30 -58q-3 29 -4.5 58.5t-1.5 49.5v826h274v-1434h-246zM641 -516q35 34 62 70t41 81q-26 0 -50 9.5t-42.5 27.5t-29.5 43.5t-11 57.5q0 35 12 63.5 t32 49t47.5 31.5t59.5 11q69 0 113.5 -43t44.5 -125q0 -98 -44.5 -177t-141.5 -158z" />
<glyph unicode="&#x146;" d="M801 0v614q0 53 -14 91t-39 62.5t-58 36t-72 11.5q-41 0 -77 -10.5t-63 -34t-42.5 -61t-15.5 -91.5v-618h-266v1047h266v-99q48 59 118.5 91t161.5 32q67 0 133 -20t118 -68t84 -127t32 -197v-659h-266zM483 -516q35 34 62 70t41 81q-26 0 -50 9.5t-42.5 27.5t-29.5 43.5 t-11 57.5q0 35 12 63.5t32 49t47.5 31.5t59.5 11q69 0 113.5 -43t44.5 -125q0 -98 -44.5 -177t-141.5 -158z" />
<glyph unicode="&#x147;" horiz-adv-x="1511" d="M1081 0l-569 836q-14 21 -30.5 51.5t-28.5 56.5q3 -23 4.5 -54t1.5 -54v-836h-275v1434h260l555 -826q13 -20 30 -50t30 -58q-3 29 -4.5 58.5t-1.5 49.5v826h274v-1434h-246zM903 1569h-256l-288 319h245l172 -141l172 141h246z" />
<glyph unicode="&#x148;" d="M801 0v614q0 53 -14 91t-39 62.5t-58 36t-72 11.5q-41 0 -77 -10.5t-63 -34t-42.5 -61t-15.5 -91.5v-618h-266v1047h266v-99q48 59 118.5 91t161.5 32q67 0 133 -20t118 -68t84 -127t32 -197v-659h-266zM712 1180h-256l-288 319h245l172 -141l172 141h246z" />
<glyph unicode="&#x149;" horiz-adv-x="1622" d="M1213 0v614q0 53 -14 91t-39 62.5t-58 36t-72 11.5q-41 0 -77 -10.5t-63 -34t-42.5 -61t-15.5 -91.5v-618h-266v1047h266v-99q48 59 118.5 91t161.5 32q67 0 133 -20t118 -68t84 -127t32 -197v-659h-266zM72 940q14 12 33 34t38.5 48t36 54t25.5 52q-50 16 -83.5 56.5 t-33.5 103.5q0 39 14 70t38 53.5t55 34.5t65 12q36 0 67.5 -13t55.5 -37.5t37.5 -61t13.5 -84.5q0 -60 -20.5 -119t-55 -112.5t-79.5 -98.5t-95 -76z" />
<glyph unicode="&#x14a;" horiz-adv-x="1511" d="M752 -285q86 19 143.5 39.5t92.5 46.5t50 60t15 82v100l-541 793q-14 21 -30.5 51.5t-28.5 56.5q3 -23 4.5 -54t1.5 -54v-836h-275v1434h260l555 -826q13 -20 30 -50t30 -58q-3 29 -4.5 58.5t-1.5 49.5v826h274v-1430q0 -46 -4 -92t-15.5 -89.5t-32 -83t-52.5 -73.5 q-38 -38 -79.5 -65.5t-84 -46.5t-86 -32t-84.5 -22z" />
<glyph unicode="&#x14b;" d="M508 -289q81 18 137 37.5t90.5 45t50 59t15.5 77.5v684q0 53 -14 91t-39 62.5t-58 36t-72 11.5q-41 0 -77 -10.5t-63 -34t-42.5 -61t-15.5 -91.5v-618h-266v1047h266v-99q48 59 118.5 91t161.5 32q67 0 133 -20t118 -68t84 -127t32 -197v-663q0 -45 -4 -90t-15 -87.5 t-31 -81.5t-52 -73q-37 -39 -78 -66.5t-82.5 -46t-83 -30.5t-78.5 -21z" />
<glyph unicode="&#x14c;" horiz-adv-x="1530" d="M766 -25q-116 0 -208 30.5t-162.5 83t-120.5 124t-81.5 154t-46 172t-14.5 178.5q0 88 14.5 177.5t46 172t81.5 154t120.5 124t162.5 83t208 30.5t207.5 -30.5t161.5 -83t120 -124t81.5 -154t46 -172t14.5 -177.5q0 -89 -14.5 -178.5t-46 -172t-81.5 -154t-120 -124 t-161.5 -83t-207.5 -30.5zM766 242q96 0 161.5 45t106 115t58.5 153.5t18 161.5q0 55 -7.5 111.5t-24.5 109t-44 99t-65 81t-88.5 54.5t-114.5 20q-65 0 -115.5 -21t-89 -56.5t-65.5 -82.5t-44 -100t-24.5 -108t-7.5 -107q0 -82 18 -166.5t58.5 -153t106.5 -112t163 -43.5z M428 1591v217h676v-217h-676z" />
<glyph unicode="&#x14d;" horiz-adv-x="1167" d="M584 -25q-111 0 -200 37.5t-151.5 108t-96.5 172t-34 229.5t34 230t96.5 173t151.5 108.5t200 37.5t200 -37.5t151.5 -108.5t96 -173t33.5 -230t-33.5 -229.5t-96 -172t-151.5 -108t-200 -37.5zM584 231q50 0 90 20t67.5 57.5t42.5 91.5t15 122q0 69 -15 123t-42.5 92 t-67.5 58t-90 20t-90 -20t-67.5 -58t-42.5 -92t-15 -123q0 -68 15 -122t42.5 -91.5t67.5 -57.5t90 -20zM243 1202v217h676v-217h-676z" />
<glyph unicode="&#x14e;" horiz-adv-x="1530" d="M766 -25q-116 0 -208 30.5t-162.5 83t-120.5 124t-81.5 154t-46 172t-14.5 178.5q0 88 14.5 177.5t46 172t81.5 154t120.5 124t162.5 83t208 30.5t207.5 -30.5t161.5 -83t120 -124t81.5 -154t46 -172t14.5 -177.5q0 -89 -14.5 -178.5t-46 -172t-81.5 -154t-120 -124 t-161.5 -83t-207.5 -30.5zM766 242q96 0 161.5 45t106 115t58.5 153.5t18 161.5q0 55 -7.5 111.5t-24.5 109t-44 99t-65 81t-88.5 54.5t-114.5 20q-65 0 -115.5 -21t-89 -56.5t-65.5 -82.5t-44 -100t-24.5 -108t-7.5 -107q0 -82 18 -166.5t58.5 -153t106.5 -112t163 -43.5z M766 1560q-101 0 -174 29t-121 77t-71 111t-23 132h205q0 -29 10.5 -57t32.5 -50t57 -35.5t84 -13.5t84.5 13.5t58 35.5t33.5 50t11 57h205q0 -69 -23.5 -132.5t-71.5 -111.5t-122 -76.5t-175 -28.5z" />
<glyph unicode="&#x14f;" horiz-adv-x="1167" d="M584 -25q-111 0 -200 37.5t-151.5 108t-96.5 172t-34 229.5t34 230t96.5 173t151.5 108.5t200 37.5t200 -37.5t151.5 -108.5t96 -173t33.5 -230t-33.5 -229.5t-96 -172t-151.5 -108t-200 -37.5zM584 231q50 0 90 20t67.5 57.5t42.5 91.5t15 122q0 69 -15 123t-42.5 92 t-67.5 58t-90 20t-90 -20t-67.5 -58t-42.5 -92t-15 -123q0 -68 15 -122t42.5 -91.5t67.5 -57.5t90 -20zM581 1171q-101 0 -174 29t-121 77t-71 111t-23 132h205q0 -29 10.5 -57t32.5 -50t57 -35.5t84 -13.5t84.5 13.5t58 35.5t33.5 50t11 57h205q0 -69 -23.5 -132.5 t-71.5 -111.5t-122 -76.5t-175 -28.5z" />
<glyph unicode="&#x150;" horiz-adv-x="1530" d="M766 -25q-116 0 -208 30.5t-162.5 83t-120.5 124t-81.5 154t-46 172t-14.5 178.5q0 88 14.5 177.5t46 172t81.5 154t120.5 124t162.5 83t208 30.5t207.5 -30.5t161.5 -83t120 -124t81.5 -154t46 -172t14.5 -177.5q0 -89 -14.5 -178.5t-46 -172t-81.5 -154t-120 -124 t-161.5 -83t-207.5 -30.5zM766 242q96 0 161.5 45t106 115t58.5 153.5t18 161.5q0 55 -7.5 111.5t-24.5 109t-44 99t-65 81t-88.5 54.5t-114.5 20q-65 0 -115.5 -21t-89 -56.5t-65.5 -82.5t-44 -100t-24.5 -108t-7.5 -107q0 -82 18 -166.5t58.5 -153t106.5 -112t163 -43.5z M602 1569h-258l291 319h331zM1052 1569h-258l291 319h332z" />
<glyph unicode="&#x151;" horiz-adv-x="1167" d="M584 -25q-111 0 -200 37.5t-151.5 108t-96.5 172t-34 229.5t34 230t96.5 173t151.5 108.5t200 37.5t200 -37.5t151.5 -108.5t96 -173t33.5 -230t-33.5 -229.5t-96 -172t-151.5 -108t-200 -37.5zM584 231q50 0 90 20t67.5 57.5t42.5 91.5t15 122q0 69 -15 123t-42.5 92 t-67.5 58t-90 20t-90 -20t-67.5 -58t-42.5 -92t-15 -123q0 -68 15 -122t42.5 -91.5t67.5 -57.5t90 -20zM418 1180h-258l291 319h331zM868 1180h-258l291 319h332z" />
<glyph unicode="&#x152;" horiz-adv-x="1962" d="M954 0q-42 -12 -91 -18.5t-97 -6.5q-116 0 -208 30.5t-162.5 83t-120.5 124t-81.5 154t-46 172t-14.5 178.5q0 88 14.5 177.5t46 172t81.5 154t120.5 124t162.5 83t208 30.5q51 0 97 -6t91 -18h852v-263h-626v-301h338v-262h-338v-346h669v-262h-895zM766 242 q40 0 74.5 8t62.5 22v889q-31 16 -64 23.5t-73 7.5q-65 0 -115.5 -21t-89 -56.5t-65.5 -82.5t-44 -100t-24.5 -108t-7.5 -107q0 -84 18 -168.5t58.5 -152.5t106.5 -111t163 -43z" />
<glyph unicode="&#x153;" horiz-adv-x="1847" d="M1290 -25q-53 0 -104.5 9t-98 27t-87.5 44.5t-72 61.5q-63 -69 -149.5 -105.5t-194.5 -36.5q-110 0 -199 37.5t-152 108t-97 172t-34 229.5t34 230t97 173t152 108.5t199 37.5q216 0 344 -143q31 34 72 60.5t87.5 45t98 28t104.5 9.5q97 0 182 -30t148 -91t99 -153.5 t36 -218.5q0 -31 -3 -72t-11 -86h-678q4 -51 24 -90t50.5 -66t69.5 -41t83 -14q72 0 126.5 25.5t99.5 82.5l163 -165q-66 -81 -162 -129t-227 -48zM584 231q50 0 90 20t67.5 57.5t42.5 91.5t15 122q0 69 -15 123t-42.5 92t-67.5 58t-90 20t-90 -20t-67.5 -58t-42.5 -92 t-15 -123q0 -68 15 -122t42.5 -91.5t67.5 -57.5t90 -20zM1290 838q-94 0 -153.5 -47t-71.5 -146h428q-12 93 -67 143t-136 50z" />
<glyph unicode="&#x154;" horiz-adv-x="1462" d="M184 0v1434h666q136 0 227.5 -37.5t147.5 -99.5t80 -143t24 -169q0 -61 -17.5 -123.5t-52.5 -118.5t-87 -101.5t-121 -70.5l278 -571h-311l-268 535h-289v-535h-277zM854 797q53 0 89 15.5t58 41.5t31.5 60t9.5 71q0 34 -8.5 67.5t-29.5 60t-57.5 42.5t-92.5 16h-393 v-374h393zM696 1569h-258l291 319h332z" />
<glyph unicode="&#x155;" horiz-adv-x="879" d="M154 0v1047h266v-93q22 50 69.5 83.5t124.5 33.5q65 0 116.5 -21t96.5 -59l-36 -243q-38 26 -83.5 43.5t-107.5 17.5q-35 0 -67.5 -10t-57.5 -35t-40 -69t-15 -111v-584h-266zM500 1180h-258l291 319h332z" />
<glyph unicode="&#x156;" horiz-adv-x="1462" d="M184 0v1434h666q136 0 227.5 -37.5t147.5 -99.5t80 -143t24 -169q0 -61 -17.5 -123.5t-52.5 -118.5t-87 -101.5t-121 -70.5l278 -571h-311l-268 535h-289v-535h-277zM854 797q53 0 89 15.5t58 41.5t31.5 60t9.5 71q0 34 -8.5 67.5t-29.5 60t-57.5 42.5t-92.5 16h-393 v-374h393zM604 -516q35 34 62 70t41 81q-26 0 -50 9.5t-42.5 27.5t-29.5 43.5t-11 57.5q0 35 12 63.5t32 49t47.5 31.5t59.5 11q69 0 113.5 -43t44.5 -125q0 -98 -44.5 -177t-141.5 -158z" />
<glyph unicode="&#x157;" horiz-adv-x="879" d="M154 0v1047h266v-93q22 50 69.5 83.5t124.5 33.5q65 0 116.5 -21t96.5 -59l-36 -243q-38 26 -83.5 43.5t-107.5 17.5q-35 0 -67.5 -10t-57.5 -35t-40 -69t-15 -111v-584h-266zM158 -556q35 34 62 70t41 81q-26 0 -50 9.5t-42.5 27.5t-29.5 43.5t-11 57.5q0 35 12 63.5 t32 49t47.5 31.5t59.5 11q69 0 113.5 -43t44.5 -125q0 -98 -44.5 -177t-141.5 -158z" />
<glyph unicode="&#x158;" horiz-adv-x="1462" d="M184 0v1434h666q136 0 227.5 -37.5t147.5 -99.5t80 -143t24 -169q0 -61 -17.5 -123.5t-52.5 -118.5t-87 -101.5t-121 -70.5l278 -571h-311l-268 535h-289v-535h-277zM854 797q53 0 89 15.5t58 41.5t31.5 60t9.5 71q0 34 -8.5 67.5t-29.5 60t-57.5 42.5t-92.5 16h-393 v-374h393zM843 1569h-256l-288 319h245l172 -141l172 141h246z" />
<glyph unicode="&#x159;" horiz-adv-x="879" d="M154 0v1047h266v-93q22 50 69.5 83.5t124.5 33.5q65 0 116.5 -21t96.5 -59l-36 -243q-38 26 -83.5 43.5t-107.5 17.5q-35 0 -67.5 -10t-57.5 -35t-40 -69t-15 -111v-584h-266zM630 1180h-256l-288 319h245l172 -141l172 141h246z" />
<glyph unicode="&#x15a;" horiz-adv-x="1300" d="M872 1044q-13 32 -35 60t-52.5 48.5t-70 32t-87.5 11.5q-90 0 -140.5 -36t-50.5 -101q0 -43 32 -72t84 -52.5t118.5 -44.5t136.5 -46.5t136.5 -60t118.5 -85t84 -120t32 -166.5q0 -105 -40 -186t-109.5 -137t-164.5 -85t-205 -29q-101 0 -189 27.5t-159.5 78.5 t-124.5 124t-84 164l252 94q23 -50 55.5 -91.5t72.5 -71t86.5 -46t99.5 -16.5q52 0 94.5 11t73 33t47 54.5t16.5 75.5q0 52 -32 87.5t-84 62t-118.5 48l-136 45.5t-136 56t-118.5 79t-84 113t-32 160q0 81 32.5 152.5t94.5 125.5t152 85.5t206 31.5q97 0 175.5 -25 t138.5 -69.5t101 -105t62 -132.5zM663 1569h-258l291 319h332z" />
<glyph unicode="&#x15b;" horiz-adv-x="1012" d="M698 758q-15 15 -34.5 31t-44.5 28.5t-56.5 20.5t-68.5 8q-60 0 -97 -20t-37 -58q0 -21 17 -39t45.5 -33t65.5 -28.5t77 -26.5q67 -22 129.5 -50t110 -68t76 -96t28.5 -134q0 -77 -29 -136t-82.5 -99.5t-129 -61.5t-168.5 -21q-64 0 -125.5 13.5t-116.5 38t-100 59.5 t-76 78l176 149q17 -16 41.5 -35.5t56 -36.5t69 -28.5t79.5 -11.5q69 0 113.5 20.5t44.5 71.5q0 25 -15.5 45t-44.5 37.5t-71 34.5t-95 36q-74 27 -134 56t-102 66.5t-64.5 87.5t-22.5 120q0 72 30 127t81.5 92.5t121 56.5t148.5 19q67 0 125 -14t105.5 -37t85.5 -53.5 t67 -63.5zM448 1180h-258l291 319h332z" />
<glyph unicode="&#x15c;" horiz-adv-x="1300" d="M872 1044q-13 32 -35 60t-52.5 48.5t-70 32t-87.5 11.5q-90 0 -140.5 -36t-50.5 -101q0 -43 32 -72t84 -52.5t118.5 -44.5t136.5 -46.5t136.5 -60t118.5 -85t84 -120t32 -166.5q0 -105 -40 -186t-109.5 -137t-164.5 -85t-205 -29q-101 0 -189 27.5t-159.5 78.5 t-124.5 124t-84 164l252 94q23 -50 55.5 -91.5t72.5 -71t86.5 -46t99.5 -16.5q52 0 94.5 11t73 33t47 54.5t16.5 75.5q0 52 -32 87.5t-84 62t-118.5 48l-136 45.5t-136 56t-118.5 79t-84 113t-32 160q0 81 32.5 152.5t94.5 125.5t152 85.5t206 31.5q97 0 175.5 -25 t138.5 -69.5t101 -105t62 -132.5zM815 1569l-172 141l-172 -141h-245l290 319h256l289 -319h-246z" />
<glyph unicode="&#x15d;" horiz-adv-x="1012" d="M698 758q-15 15 -34.5 31t-44.5 28.5t-56.5 20.5t-68.5 8q-60 0 -97 -20t-37 -58q0 -21 17 -39t45.5 -33t65.5 -28.5t77 -26.5q67 -22 129.5 -50t110 -68t76 -96t28.5 -134q0 -77 -29 -136t-82.5 -99.5t-129 -61.5t-168.5 -21q-64 0 -125.5 13.5t-116.5 38t-100 59.5 t-76 78l176 149q17 -16 41.5 -35.5t56 -36.5t69 -28.5t79.5 -11.5q69 0 113.5 20.5t44.5 71.5q0 25 -15.5 45t-44.5 37.5t-71 34.5t-95 36q-74 27 -134 56t-102 66.5t-64.5 87.5t-22.5 120q0 72 30 127t81.5 92.5t121 56.5t148.5 19q67 0 125 -14t105.5 -37t85.5 -53.5 t67 -63.5zM673 1180l-172 141l-172 -141h-245l290 319h256l289 -319h-246z" />
<glyph unicode="&#x15e;" horiz-adv-x="1300" d="M649 -500q-86 0 -140 27.5t-85 69.5l115 86q12 -16 33.5 -27.5t50.5 -11.5q48 0 73 21t25 59q0 37 -26 58t-74 21q-47 0 -89 -28l-55 67l113 138q-89 8 -165.5 38.5t-139 81t-109 118.5t-74.5 151l252 94q23 -50 55.5 -91.5t72.5 -71t86.5 -46t99.5 -16.5q52 0 94.5 11 t73 33t47 54.5t16.5 75.5q0 52 -32 87.5t-84 62t-118.5 48l-136 45.5t-136 56t-118.5 79t-84 113t-32 160q0 81 32.5 152.5t94.5 125.5t152 85.5t206 31.5q97 0 175.5 -25t138.5 -69.5t101 -105t62 -132.5l-248 -82q-13 32 -35 60t-52.5 48.5t-70 32t-87.5 11.5 q-90 0 -140.5 -36t-50.5 -101q0 -43 32 -72t84 -52.5t118.5 -44.5t136.5 -46.5t136.5 -60t118.5 -85t84 -120t32 -166.5q0 -95 -33 -170t-91 -129.5t-138.5 -87.5t-174.5 -43l-45 -76q60 0 103.5 -14t72 -39t42.5 -59t14 -73q0 -48 -18.5 -88.5t-54 -70t-87.5 -46 t-119 -16.5z" />
<glyph unicode="&#x15f;" horiz-adv-x="1012" d="M475 -500q-87 0 -140.5 27.5t-84.5 69.5l115 86q12 -16 33.5 -27.5t50.5 -11.5q48 0 73 21t25 59q0 37 -26.5 58t-74.5 21q-46 0 -88 -28l-55 67l115 140q-52 7 -101.5 22.5t-93 39t-80 54t-61.5 66.5l176 149q17 -16 41.5 -35.5t56 -36.5t69 -28.5t79.5 -11.5 q69 0 113.5 20.5t44.5 71.5q0 25 -15.5 45t-44.5 37.5t-71 34.5t-95 36q-74 27 -134 56t-102 66.5t-64.5 87.5t-22.5 120q0 72 30 127t81.5 92.5t121 56.5t148.5 19q67 0 125 -14t105.5 -37t85.5 -53.5t67 -63.5l-179 -145q-15 15 -34.5 31t-44.5 28.5t-56.5 20.5t-68.5 8 q-60 0 -97 -20t-37 -58q0 -21 17 -39t45.5 -33t65.5 -28.5t77 -26.5q67 -22 129.5 -50t110 -68t76 -96t28.5 -134q0 -70 -24 -125t-68.5 -94.5t-108 -63t-141.5 -30.5l-45 -74q60 0 103.5 -14t72 -39t42.5 -59t14 -73q0 -48 -18.5 -88.5t-54 -70t-87.5 -46t-119 -16.5z" />
<glyph unicode="&#x160;" horiz-adv-x="1300" d="M872 1044q-13 32 -35 60t-52.5 48.5t-70 32t-87.5 11.5q-90 0 -140.5 -36t-50.5 -101q0 -43 32 -72t84 -52.5t118.5 -44.5t136.5 -46.5t136.5 -60t118.5 -85t84 -120t32 -166.5q0 -105 -40 -186t-109.5 -137t-164.5 -85t-205 -29q-101 0 -189 27.5t-159.5 78.5 t-124.5 124t-84 164l252 94q23 -50 55.5 -91.5t72.5 -71t86.5 -46t99.5 -16.5q52 0 94.5 11t73 33t47 54.5t16.5 75.5q0 52 -32 87.5t-84 62t-118.5 48l-136 45.5t-136 56t-118.5 79t-84 113t-32 160q0 81 32.5 152.5t94.5 125.5t152 85.5t206 31.5q97 0 175.5 -25 t138.5 -69.5t101 -105t62 -132.5zM770 1569h-256l-288 319h245l172 -141l172 141h246z" />
<glyph unicode="&#x161;" horiz-adv-x="1012" d="M698 758q-15 15 -34.5 31t-44.5 28.5t-56.5 20.5t-68.5 8q-60 0 -97 -20t-37 -58q0 -21 17 -39t45.5 -33t65.5 -28.5t77 -26.5q67 -22 129.5 -50t110 -68t76 -96t28.5 -134q0 -77 -29 -136t-82.5 -99.5t-129 -61.5t-168.5 -21q-64 0 -125.5 13.5t-116.5 38t-100 59.5 t-76 78l176 149q17 -16 41.5 -35.5t56 -36.5t69 -28.5t79.5 -11.5q69 0 113.5 20.5t44.5 71.5q0 25 -15.5 45t-44.5 37.5t-71 34.5t-95 36q-74 27 -134 56t-102 66.5t-64.5 87.5t-22.5 120q0 72 30 127t81.5 92.5t121 56.5t148.5 19q67 0 125 -14t105.5 -37t85.5 -53.5 t67 -63.5zM622 1180h-256l-288 319h245l172 -141l172 141h246z" />
<glyph unicode="&#x162;" horiz-adv-x="1280" d="M612 -500q-86 0 -140 27.5t-85 69.5l115 86q12 -16 33.5 -27.5t50.5 -11.5q48 0 73 21t25 59q0 37 -26 58t-74 21t-88 -28l-56 67l129 158h-67v1167h-410v267h1096v-267h-410v-1167h-61l-58 -94q60 0 103.5 -14t72 -39t42.5 -59t14 -73q0 -48 -18.5 -88.5t-54 -70 t-87.5 -46t-119 -16.5z" />
<glyph unicode="&#x163;" horiz-adv-x="805" d="M434 -500q-87 0 -140.5 27.5t-84.5 69.5l115 86q12 -16 33.5 -27.5t50.5 -11.5q48 0 73 21t25 59q0 37 -26 58t-74 21q-47 0 -89 -28l-55 67l117 144q-90 20 -129 89t-39 177v561h-150v234h150v305l266 127v-432h234v-234h-234v-522q0 -40 19.5 -61t54.5 -21 q40 0 83 11.5t89 33.5l-31 -231q-72 -35 -166 -46l-45 -71q60 0 103.5 -14t72 -39t42.5 -59t14 -73q0 -48 -18.5 -88.5t-54 -70t-87.5 -46t-119 -16.5z" />
<glyph unicode="&#x164;" horiz-adv-x="1280" d="M778 1167v-1167h-276v1167h-410v267h1096v-267h-410zM764 1569h-256l-288 319h245l172 -141l172 141h246z" />
<glyph unicode="&#x165;" horiz-adv-x="975" d="M465 -25q-68 0 -116 19t-78.5 54.5t-45 87t-14.5 116.5v561h-150v234h150v305l266 127v-432h234v-234h-234v-522q0 -40 19.5 -61t54.5 -21q40 0 83 11.5t89 33.5l-31 -231q-46 -23 -104 -35.5t-123 -12.5zM924 1720v-16q0 -86 -16.5 -159t-46 -135.5t-71 -116.5 t-91.5 -103l-86 65q14 28 25.5 77t20 110.5t13 132.5t4.5 145h248z" />
<glyph unicode="&#x166;" horiz-adv-x="1280" d="M778 1167v-385h234v-256h-234v-526h-276v526h-234v256h234v385h-410v267h1096v-267h-410z" />
<glyph unicode="&#x167;" horiz-adv-x="825" d="M475 -25q-68 0 -116 19t-78.5 54.5t-45 87t-14.5 116.5v147h-149v234h149v180h-149v234h149v305l266 127v-432h234v-234h-234v-180h234v-234h-234v-108q0 -40 19.5 -61t54.5 -21q40 0 83 11.5t89 33.5l-31 -231q-46 -23 -104 -35.5t-123 -12.5z" />
<glyph unicode="&#x168;" horiz-adv-x="1503" d="M752 -25q-73 0 -144.5 12.5t-135.5 40.5t-118.5 72.5t-94.5 108.5t-62.5 148t-22.5 192v885h277v-885q0 -89 20.5 -148.5t59.5 -94.5t95 -49.5t126 -14.5q69 0 124.5 14.5t95 49.5t60.5 94.5t21 148.5v885h276v-885q0 -160 -48 -269.5t-128.5 -177t-184.5 -97.5t-216 -30 zM913 1583q-54 0 -99.5 14.5t-85.5 32.5t-77 32.5t-76 14.5q-38 0 -65.5 -19.5t-30.5 -66.5h-125q0 61 12 113t39.5 90t73 59t111.5 21q54 0 99.5 -14.5t85.5 -32.5t77 -32.5t76 -14.5q38 0 65.5 19.5t30.5 66.5h125q0 -62 -12 -113.5t-40 -89.5t-73 -59t-111 -21z" />
<glyph unicode="&#x169;" d="M791 0v98q-48 -59 -119 -91t-162 -32q-67 0 -132.5 20.5t-117.5 68.5t-84.5 127t-32.5 196v660h267v-615q0 -53 14 -91t38.5 -62.5t57.5 -36t72 -11.5q41 0 77.5 10.5t63.5 34t42.5 61t15.5 91.5v619h266v-1047h-266zM735 1194q-54 0 -99.5 14.5t-85.5 32.5t-77 32.5 t-76 14.5q-38 0 -65.5 -19.5t-30.5 -66.5h-125q0 61 12 113t39.5 90t73 59t111.5 21q54 0 99.5 -14.5t85.5 -32.5t77 -32.5t76 -14.5q38 0 65.5 19.5t30.5 66.5h125q0 -62 -12 -113.5t-40 -89.5t-73 -59t-111 -21z" />
<glyph unicode="&#x16a;" horiz-adv-x="1503" d="M752 -25q-73 0 -144.5 12.5t-135.5 40.5t-118.5 72.5t-94.5 108.5t-62.5 148t-22.5 192v885h277v-885q0 -89 20.5 -148.5t59.5 -94.5t95 -49.5t126 -14.5q69 0 124.5 14.5t95 49.5t60.5 94.5t21 148.5v885h276v-885q0 -160 -48 -269.5t-128.5 -177t-184.5 -97.5t-216 -30 zM413 1591v217h676v-217h-676z" />
<glyph unicode="&#x16b;" d="M791 0v98q-48 -59 -119 -91t-162 -32q-67 0 -132.5 20.5t-117.5 68.5t-84.5 127t-32.5 196v660h267v-615q0 -53 14 -91t38.5 -62.5t57.5 -36t72 -11.5q41 0 77.5 10.5t63.5 34t42.5 61t15.5 91.5v619h266v-1047h-266zM235 1202v217h676v-217h-676z" />
<glyph unicode="&#x16c;" horiz-adv-x="1503" d="M752 -25q-73 0 -144.5 12.5t-135.5 40.5t-118.5 72.5t-94.5 108.5t-62.5 148t-22.5 192v885h277v-885q0 -89 20.5 -148.5t59.5 -94.5t95 -49.5t126 -14.5q69 0 124.5 14.5t95 49.5t60.5 94.5t21 148.5v885h276v-885q0 -160 -48 -269.5t-128.5 -177t-184.5 -97.5t-216 -30 zM751 1560q-101 0 -174 29t-121 77t-71 111t-23 132h205q0 -29 10.5 -57t32.5 -50t57 -35.5t84 -13.5t84.5 13.5t58 35.5t33.5 50t11 57h205q0 -69 -23.5 -132.5t-71.5 -111.5t-122 -76.5t-175 -28.5z" />
<glyph unicode="&#x16d;" d="M791 0v98q-48 -59 -119 -91t-162 -32q-67 0 -132.5 20.5t-117.5 68.5t-84.5 127t-32.5 196v660h267v-615q0 -53 14 -91t38.5 -62.5t57.5 -36t72 -11.5q41 0 77.5 10.5t63.5 34t42.5 61t15.5 91.5v619h266v-1047h-266zM573 1171q-101 0 -174 29t-121 77t-71 111t-23 132 h205q0 -29 10.5 -57t32.5 -50t57 -35.5t84 -13.5t84.5 13.5t58 35.5t33.5 50t11 57h205q0 -69 -23.5 -132.5t-71.5 -111.5t-122 -76.5t-175 -28.5z" />
<glyph unicode="&#x16e;" horiz-adv-x="1503" d="M752 -25q-73 0 -144.5 12.5t-135.5 40.5t-118.5 72.5t-94.5 108.5t-62.5 148t-22.5 192v885h277v-885q0 -89 20.5 -148.5t59.5 -94.5t95 -49.5t126 -14.5q69 0 124.5 14.5t95 49.5t60.5 94.5t21 148.5v885h276v-885q0 -160 -48 -269.5t-128.5 -177t-184.5 -97.5t-216 -30 zM751 1646q32 0 56 23.5t24 58.5t-24 58.5t-56 23.5q-34 0 -56.5 -23.5t-22.5 -58.5t22.5 -58.5t56.5 -23.5zM751 1464q-54 0 -102.5 21t-85 57t-57.5 84t-21 102q0 55 21 103t57.5 83.5t85 56t102.5 20.5q55 0 103.5 -20.5t85 -56t57.5 -83.5t21 -103q0 -54 -21 -102 t-57.5 -84t-85 -57t-103.5 -21z" />
<glyph unicode="&#x16f;" d="M791 0v98q-48 -59 -119 -91t-162 -32q-67 0 -132.5 20.5t-117.5 68.5t-84.5 127t-32.5 196v660h267v-615q0 -53 14 -91t38.5 -62.5t57.5 -36t72 -11.5q41 0 77.5 10.5t63.5 34t42.5 61t15.5 91.5v619h266v-1047h-266zM573 1257q32 0 56 23.5t24 58.5t-24 58.5t-56 23.5 q-34 0 -56.5 -23.5t-22.5 -58.5t22.5 -58.5t56.5 -23.5zM573 1075q-54 0 -102.5 21t-85 57t-57.5 84t-21 102q0 55 21 103t57.5 83.5t85 56t102.5 20.5q55 0 103.5 -20.5t85 -56t57.5 -83.5t21 -103q0 -54 -21 -102t-57.5 -84t-85 -57t-103.5 -21z" />
<glyph unicode="&#x170;" horiz-adv-x="1503" d="M752 -25q-73 0 -144.5 12.5t-135.5 40.5t-118.5 72.5t-94.5 108.5t-62.5 148t-22.5 192v885h277v-885q0 -89 20.5 -148.5t59.5 -94.5t95 -49.5t126 -14.5q69 0 124.5 14.5t95 49.5t60.5 94.5t21 148.5v885h276v-885q0 -160 -48 -269.5t-128.5 -177t-184.5 -97.5t-216 -30 zM588 1569h-258l291 319h331zM1038 1569h-258l291 319h332z" />
<glyph unicode="&#x171;" d="M791 0v98q-48 -59 -119 -91t-162 -32q-67 0 -132.5 20.5t-117.5 68.5t-84.5 127t-32.5 196v660h267v-615q0 -53 14 -91t38.5 -62.5t57.5 -36t72 -11.5q41 0 77.5 10.5t63.5 34t42.5 61t15.5 91.5v619h266v-1047h-266zM410 1180h-258l291 319h331zM860 1180h-258l291 319 h332z" />
<glyph unicode="&#x172;" horiz-adv-x="1503" d="M793 -500q-58 0 -105 16t-80 45t-51 69.5t-18 90.5q0 81 45.5 144.5t130.5 109.5q-105 5 -203 37.5t-173 100t-120 174.5t-45 262v885h277v-885q0 -89 20.5 -148.5t59.5 -94.5t95 -49.5t126 -14.5q69 0 124.5 14.5t95 49.5t60.5 94.5t21 148.5v885h276v-885 q0 -120 -26.5 -209.5t-73.5 -154.5t-111 -109t-139 -72q-61 -23 -103.5 -55t-69 -67.5t-38.5 -71.5t-12 -66q0 -48 23 -69t55 -21q27 0 47 11.5t32 27.5l123 -88q-15 -17 -36.5 -35.5t-50.5 -34t-67.5 -25.5t-88.5 -10z" />
<glyph unicode="&#x173;" d="M823 -500q-57 0 -104 16t-80.5 45t-51.5 69.5t-18 90.5q0 91 58 161t164 118v98q-48 -59 -119 -91t-162 -32q-67 0 -132.5 20.5t-117.5 68.5t-84.5 127t-32.5 196v660h267v-615q0 -53 14 -91t38.5 -62.5t57.5 -36t72 -11.5q41 0 77.5 10.5t63.5 34t42.5 61t15.5 91.5v619 h266v-1047q-74 -21 -125.5 -51.5t-84 -65t-47 -71t-14.5 -68.5q0 -48 23 -69t55 -21q28 0 48 11.5t32 27.5l123 -88q-15 -17 -36.5 -35.5t-51 -34t-68 -25.5t-88.5 -10z" />
<glyph unicode="&#x174;" horiz-adv-x="1786" d="M1694 1434l-310 -1434h-258l-217 844q-9 34 -13 60.5l-7 47.5q-3 -21 -8 -47.5t-13 -58.5l-211 -846h-258l-307 1434h285l160 -807q8 -37 11.5 -61l6.5 -46q3 22 7 46.5t13 62.5l197 805h240l200 -805q10 -38 14 -62.5t7 -46.5l6.5 46t11.5 61l160 807h283zM1065 1569 l-172 141l-172 -141h-245l290 319h256l289 -319h-246z" />
<glyph unicode="&#x175;" horiz-adv-x="1538" d="M1171 0h-235l-133 522q-4 14 -8.5 33.5l-9.5 41l-9.5 42.5t-7.5 39q-3 -18 -7.5 -39l-9.5 -42.5l-9.5 -41t-8.5 -33.5l-133 -522h-235l-293 1047h262l123 -510q8 -31 14 -68.5t12 -69.5l15 69.5t16 68.5l133 510h242l131 -510q8 -31 16 -68.5l15 -69.5q6 32 12 69.5 t14 68.5l127 510h262zM940 1180l-172 141l-172 -141h-245l290 319h256l289 -319h-246z" />
<glyph unicode="&#x176;" horiz-adv-x="1458" d="M592 0v559l-531 875h314l354 -586l354 586h314l-531 -875v-559h-274zM901 1569l-172 141l-172 -141h-245l290 319h256l289 -319h-246z" />
<glyph unicode="&#x177;" horiz-adv-x="1167" d="M561 -397h-276l159 411l-393 1033h273l229 -605q18 -47 31 -96q6 25 14 49l16 47l230 605h272zM757 1180l-172 141l-172 -141h-245l290 319h256l289 -319h-246z" />
<glyph unicode="&#x178;" horiz-adv-x="1458" d="M592 0v559l-531 875h314l354 -586l354 586h314l-531 -875v-559h-274zM535 1579q-32 0 -59 11.5t-47.5 31.5t-32 47t-11.5 59q0 31 11.5 58.5t32 48t47.5 32t59 11.5q31 0 58.5 -11.5t47.5 -32t31.5 -48t11.5 -58.5q0 -32 -11.5 -59t-31.5 -47t-47.5 -31.5t-58.5 -11.5z M924 1579q-32 0 -59 11.5t-47.5 31.5t-32 47t-11.5 59q0 31 11.5 58.5t32 48t47.5 32t59 11.5q31 0 58.5 -11.5t47.5 -32t31.5 -48t11.5 -58.5q0 -32 -11.5 -59t-31.5 -47t-47.5 -31.5t-58.5 -11.5z" />
<glyph unicode="&#x179;" horiz-adv-x="1362" d="M113 0v211l749 960h-704v263h1071v-211l-756 -961h756v-262h-1116zM711 1569h-258l291 319h332z" />
<glyph unicode="&#x17a;" horiz-adv-x="1114" d="M113 0v209l540 600h-501v238h839v-203l-538 -606h536v-238h-876zM555 1180h-258l291 319h332z" />
<glyph unicode="&#x17b;" horiz-adv-x="1362" d="M113 0v211l749 960h-704v263h1071v-211l-756 -961h756v-262h-1116zM690 1579q-32 0 -59 11.5t-47 31.5t-31.5 47t-11.5 59q0 31 11.5 58.5t31.5 48t47 32t59 11.5q31 0 58.5 -11.5t48 -32t32 -48t11.5 -58.5q0 -32 -11.5 -59t-32 -47t-48 -31.5t-58.5 -11.5z" />
<glyph unicode="&#x17c;" horiz-adv-x="1114" d="M113 0v209l540 600h-501v238h839v-203l-538 -606h536v-238h-876zM573 1190q-32 0 -59 11.5t-47 31.5t-31.5 47t-11.5 59q0 31 11.5 58.5t31.5 48t47 32t59 11.5q31 0 58.5 -11.5t48 -32t32 -48t11.5 -58.5q0 -32 -11.5 -59t-32 -47t-48 -31.5t-58.5 -11.5z" />
<glyph unicode="&#x17d;" horiz-adv-x="1362" d="M113 0v211l749 960h-704v263h1071v-211l-756 -961h756v-262h-1116zM817 1569h-256l-288 319h245l172 -141l172 141h246z" />
<glyph unicode="&#x17e;" horiz-adv-x="1114" d="M113 0v209l540 600h-501v238h839v-203l-538 -606h536v-238h-876zM700 1180h-256l-288 319h245l172 -141l172 141h246z" />
<glyph unicode="&#x17f;" horiz-adv-x="666" d="M164 0v1206q0 78 22.5 127t59 76.5t82.5 38t94 10.5q63 0 119.5 -11.5t113.5 -39.5v-217q-31 12 -54 18.5t-40.5 10.5t-30.5 5t-24 1q-34 0 -55 -17.5t-21 -54.5v-1153h-266z" />
<glyph unicode="&#x192;" horiz-adv-x="791" d="M-35 -289q81 18 137 37.5t90.5 45t50 59t15.5 77.5v879h-145v238h145v159q0 78 22.5 127t59 76.5t82.5 38t94 10.5q63 0 120 -11.5t114 -39.5v-217q-31 12 -54 18.5t-41 10.5t-31 5t-24 1q-34 0 -55 -17.5t-21 -54.5v-106h226v-238h-226v-813q0 -45 -4 -90t-15 -87.5 t-31 -81.5t-52 -73q-37 -39 -77.5 -66.5t-82.5 -46t-83 -30.5t-79 -21z" />
<glyph unicode="&#x1cd;" horiz-adv-x="1520" d="M1147 0l-111 297h-553l-110 -297h-297l549 1434h270l549 -1434h-297zM805 922q-11 26 -23.5 62t-21.5 67q-8 -31 -21 -67t-24 -62l-142 -373h373zM860 1569h-256l-288 319h245l172 -141l172 141h246z" />
<glyph unicode="&#x1ce;" horiz-adv-x="1143" d="M748 0v76q-18 -19 -43.5 -37t-59.5 -32.5t-75.5 -23t-92.5 -8.5q-81 0 -151 22t-122 66t-82 108.5t-30 150.5q0 90 36 155.5t94.5 108t133 62.5t152.5 20q75 0 133.5 -13.5t106.5 -36.5v54q0 86 -49 126t-140 40q-93 0 -171 -27t-152 -78l-82 215q37 25 83.5 47.5 t100.5 39.5t115.5 26.5t128.5 9.5q47 0 97 -5t97.5 -20t90 -43t74.5 -72.5t50.5 -109t18.5 -153.5v-668h-262zM528 209q73 0 127 25.5t93 60.5v113q-41 15 -91.5 24.5t-103.5 9.5q-41 0 -77.5 -6.5t-64 -21t-43.5 -37.5t-16 -55q0 -51 45 -82t131 -31zM710 1180h-256 l-288 319h245l172 -141l172 141h246z" />
<glyph unicode="&#x1cf;" horiz-adv-x="666" d="M195 0v1434h276v-1434h-276zM459 1569h-256l-288 319h245l172 -141l172 141h246z" />
<glyph unicode="&#x1d0;" horiz-adv-x="578" d="M418 1180h-256l-288 319h245l172 -141l172 141h246zM156 0v1047h266v-1047h-266z" />
<glyph unicode="&#x1d1;" horiz-adv-x="1530" d="M766 -25q-116 0 -208 30.5t-162.5 83t-120.5 124t-81.5 154t-46 172t-14.5 178.5q0 88 14.5 177.5t46 172t81.5 154t120.5 124t162.5 83t208 30.5t207.5 -30.5t161.5 -83t120 -124t81.5 -154t46 -172t14.5 -177.5q0 -89 -14.5 -178.5t-46 -172t-81.5 -154t-120 -124 t-161.5 -83t-207.5 -30.5zM766 242q96 0 161.5 45t106 115t58.5 153.5t18 161.5q0 55 -7.5 111.5t-24.5 109t-44 99t-65 81t-88.5 54.5t-114.5 20q-65 0 -115.5 -21t-89 -56.5t-65.5 -82.5t-44 -100t-24.5 -108t-7.5 -107q0 -82 18 -166.5t58.5 -153t106.5 -112t163 -43.5z M893 1569h-256l-288 319h245l172 -141l172 141h246z" />
<glyph unicode="&#x1d2;" horiz-adv-x="1167" d="M584 -25q-111 0 -200 37.5t-151.5 108t-96.5 172t-34 229.5t34 230t96.5 173t151.5 108.5t200 37.5t200 -37.5t151.5 -108.5t96 -173t33.5 -230t-33.5 -229.5t-96 -172t-151.5 -108t-200 -37.5zM584 231q50 0 90 20t67.5 57.5t42.5 91.5t15 122q0 69 -15 123t-42.5 92 t-67.5 58t-90 20t-90 -20t-67.5 -58t-42.5 -92t-15 -123q0 -68 15 -122t42.5 -91.5t67.5 -57.5t90 -20zM708 1180h-256l-288 319h245l172 -141l172 141h246z" />
<glyph unicode="&#x1d3;" horiz-adv-x="1503" d="M752 -25q-73 0 -144.5 12.5t-135.5 40.5t-118.5 72.5t-94.5 108.5t-62.5 148t-22.5 192v885h277v-885q0 -89 20.5 -148.5t59.5 -94.5t95 -49.5t126 -14.5q69 0 124.5 14.5t95 49.5t60.5 94.5t21 148.5v885h276v-885q0 -160 -48 -269.5t-128.5 -177t-184.5 -97.5t-216 -30 zM876 1569h-256l-288 319h245l172 -141l172 141h246z" />
<glyph unicode="&#x1d4;" d="M791 0v98q-48 -59 -119 -91t-162 -32q-67 0 -132.5 20.5t-117.5 68.5t-84.5 127t-32.5 196v660h267v-615q0 -53 14 -91t38.5 -62.5t57.5 -36t72 -11.5q41 0 77.5 10.5t63.5 34t42.5 61t15.5 91.5v619h266v-1047h-266zM702 1180h-256l-288 319h245l172 -141l172 141h246z " />
<glyph unicode="&#x1fc;" horiz-adv-x="1851" d="M805 0v297h-371l-168 -297h-297l832 1434h895v-263h-615v-301h326v-262h-326v-346h658v-262h-934zM805 549v409q-9 -24 -21.5 -49l-27.5 -53l-174 -307h223zM1143 1569h-258l291 319h332z" />
<glyph unicode="&#x1fd;" horiz-adv-x="1753" d="M1196 -25q-121 0 -215 43.5t-156 124.5q-83 -92 -179 -130t-193 -38q-75 0 -141 22t-115 66t-77 108.5t-28 150.5q0 92 34 158t88.5 109t124.5 63t142 20q71 0 126 -13t100 -36v49q0 86 -45 126t-130 40t-156.5 -27t-139.5 -78l-82 215q36 25 80 47.5t95.5 39.5 t109.5 26.5t122 9.5q41 0 84.5 -4.5t85.5 -17t79.5 -35t66.5 -58.5q55 56 137.5 85.5t181.5 29.5q97 0 182 -30t148 -91t99 -153.5t36 -218.5q0 -31 -3 -72t-11 -86h-678q4 -51 24 -90t50.5 -66t69.5 -41t83 -14q72 0 126 25.5t99 82.5l164 -165q-66 -81 -162 -129t-227 -48 zM510 209q65 0 114 25.5t83 60.5v113q-36 15 -82 24.5t-93 9.5q-37 0 -69.5 -6.5t-57 -21t-39 -37.5t-14.5 -55q0 -51 40.5 -82t117.5 -31zM1196 838q-94 0 -153.5 -47t-71.5 -146h428q-13 93 -67.5 143t-135.5 50zM905 1180h-258l291 319h332z" />
<glyph unicode="&#x1fe;" horiz-adv-x="1530" d="M786 1569h-258l291 319h332zM133 -25l152 226q-40 53 -69 114.5t-47.5 128t-27 136t-8.5 137.5q0 88 14.5 177.5t46 172t81.5 154t120.5 124t162.5 83t208 30.5q94 0 172 -20t143 -58l54 78h262l-152 -225q40 -53 69 -114.5t47.5 -128t27 -136t8.5 -137.5 q0 -89 -14.5 -178.5t-46 -172t-81.5 -154t-120 -124t-161.5 -83t-207.5 -30.5q-96 0 -175 20.5t-142 57.5l-54 -78h-262zM420 717q0 -63 10 -128t33 -124l463 684q-34 20 -73 31.5t-87 11.5q-65 0 -115.5 -21t-89 -56.5t-65.5 -82.5t-44 -100t-24.5 -108t-7.5 -107zM766 242 q96 0 161.5 45t106 115t58.5 153.5t18 161.5q0 63 -10 128t-33 124l-463 -684q32 -20 72 -31.5t90 -11.5z" />
<glyph unicode="&#x1ff;" horiz-adv-x="1169" d="M561 1180h-258l291 319h332zM102 -25l111 168q-54 70 -82.5 165.5t-28.5 213.5q0 128 34 230t96.5 173t151.5 108.5t200 37.5q60 0 114 -11.5t101 -33.5l28 45h240l-113 -170q54 -71 82.5 -165.5t28.5 -213.5q0 -128 -33.5 -229.5t-96 -172t-151.5 -108t-200 -37.5 q-60 0 -113.5 11.5t-99.5 31.5l-29 -43h-240zM584 231q50 0 90 20t67.5 57.5t42.5 91.5t15 122q0 34 -4 67.5t-11 55.5l-266 -403q16 -7 31.5 -9t34.5 -2zM369 522q0 -34 4 -65.5t10 -57.5l268 406q-12 5 -31 7.5t-36 2.5q-50 0 -90 -20t-67.5 -58t-42.5 -92t-15 -123z" />
<glyph unicode="&#x218;" horiz-adv-x="1300" d="M872 1044q-13 32 -35 60t-52.5 48.5t-70 32t-87.5 11.5q-90 0 -140.5 -36t-50.5 -101q0 -43 32 -72t84 -52.5t118.5 -44.5t136.5 -46.5t136.5 -60t118.5 -85t84 -120t32 -166.5q0 -105 -40 -186t-109.5 -137t-164.5 -85t-205 -29q-101 0 -189 27.5t-159.5 78.5 t-124.5 124t-84 164l252 94q23 -50 55.5 -91.5t72.5 -71t86.5 -46t99.5 -16.5q52 0 94.5 11t73 33t47 54.5t16.5 75.5q0 52 -32 87.5t-84 62t-118.5 48l-136 45.5t-136 56t-118.5 79t-84 113t-32 160q0 81 32.5 152.5t94.5 125.5t152 85.5t206 31.5q97 0 175.5 -25 t138.5 -69.5t101 -105t62 -132.5zM542 -516q35 34 62 70t41 81q-26 0 -50 9.5t-42.5 27.5t-29.5 43.5t-11 57.5q0 35 12 63.5t32 49t47.5 31.5t59.5 11q69 0 113.5 -43t44.5 -125q0 -98 -44.5 -177t-141.5 -158z" />
<glyph unicode="&#x219;" horiz-adv-x="1012" d="M698 758q-15 15 -34.5 31t-44.5 28.5t-56.5 20.5t-68.5 8q-60 0 -97 -20t-37 -58q0 -21 17 -39t45.5 -33t65.5 -28.5t77 -26.5q67 -22 129.5 -50t110 -68t76 -96t28.5 -134q0 -77 -29 -136t-82.5 -99.5t-129 -61.5t-168.5 -21q-64 0 -125.5 13.5t-116.5 38t-100 59.5 t-76 78l176 149q17 -16 41.5 -35.5t56 -36.5t69 -28.5t79.5 -11.5q69 0 113.5 20.5t44.5 71.5q0 25 -15.5 45t-44.5 37.5t-71 34.5t-95 36q-74 27 -134 56t-102 66.5t-64.5 87.5t-22.5 120q0 72 30 127t81.5 92.5t121 56.5t148.5 19q67 0 125 -14t105.5 -37t85.5 -53.5 t67 -63.5zM378 -516q35 34 62 70t41 81q-26 0 -50 9.5t-42.5 27.5t-29.5 43.5t-11 57.5q0 35 12 63.5t32 49t47.5 31.5t59.5 11q69 0 113.5 -43t44.5 -125q0 -98 -44.5 -177t-141.5 -158z" />
<glyph unicode="&#x21a;" horiz-adv-x="1280" d="M778 1167v-1167h-276v1167h-410v267h1096v-267h-410zM518 -516q35 34 62 70t41 81q-26 0 -50 9.5t-42.5 27.5t-29.5 43.5t-11 57.5q0 35 12 63.5t32 49t47.5 31.5t59.5 11q69 0 113.5 -43t44.5 -125q0 -98 -44.5 -177t-141.5 -158z" />
<glyph unicode="&#x21b;" horiz-adv-x="805" d="M465 -25q-68 0 -116 19t-78.5 54.5t-45 87t-14.5 116.5v561h-150v234h150v305l266 127v-432h234v-234h-234v-522q0 -40 19.5 -61t54.5 -21q40 0 83 11.5t89 33.5l-31 -231q-46 -23 -104 -35.5t-123 -12.5zM324 -516q35 34 62 70t41 81q-26 0 -50 9.5t-42.5 27.5 t-29.5 43.5t-11 57.5q0 35 12 63.5t32 49t47.5 31.5t59.5 11q69 0 113.5 -43t44.5 -125q0 -98 -44.5 -177t-141.5 -158z" />
<glyph unicode="&#x237;" horiz-adv-x="578" d="M-137 -227q81 18 137 37.5t90.5 45t50 58.5t15.5 78v1055h266v-990q0 -45 -4 -89.5t-15 -87t-31 -81.5t-53 -73q-37 -39 -77.5 -66.5t-82 -46.5t-83 -31t-78.5 -20z" />
<glyph unicode="&#xf6be;" horiz-adv-x="578" d="M-137 -227q81 18 137 37.5t90.5 45t50 58.5t15.5 78v1055h266v-990q0 -45 -4 -89.5t-15 -87t-31 -81.5t-53 -73q-37 -39 -77.5 -66.5t-82 -46.5t-83 -31t-78.5 -20z" />
<glyph unicode="&#x2c6;" horiz-adv-x="973" d="M657 1180l-172 141l-172 -141h-245l290 319h256l289 -319h-246z" />
<glyph unicode="&#x2c7;" horiz-adv-x="973" d="M612 1180h-256l-288 319h245l172 -141l172 141h246z" />
<glyph unicode="&#x2c9;" horiz-adv-x="973" d="M147 1202v217h676v-217h-676z" />
<glyph unicode="&#x2d8;" horiz-adv-x="973" d="M485 1171q-101 0 -174 29t-121 77t-71 111t-23 132h205q0 -29 10.5 -57t32.5 -50t57 -35.5t84 -13.5t84.5 13.5t58 35.5t33.5 50t11 57h205q0 -69 -23.5 -132.5t-71.5 -111.5t-122 -76.5t-175 -28.5z" />
<glyph unicode="&#x2d9;" horiz-adv-x="973" d="M485 1190q-32 0 -59 11.5t-47 31.5t-31.5 47t-11.5 59q0 31 11.5 58.5t31.5 48t47 32t59 11.5q31 0 58.5 -11.5t48 -32t32 -48t11.5 -58.5q0 -32 -11.5 -59t-32 -47t-48 -31.5t-58.5 -11.5z" />
<glyph unicode="&#x2da;" horiz-adv-x="973" d="M485 1257q32 0 56 23.5t24 58.5t-24 58.5t-56 23.5q-34 0 -56.5 -23.5t-22.5 -58.5t22.5 -58.5t56.5 -23.5zM485 1075q-54 0 -102.5 21t-85 57t-57.5 84t-21 102q0 55 21 103t57.5 83.5t85 56t102.5 20.5q55 0 103.5 -20.5t85 -56t57.5 -83.5t21 -103q0 -54 -21 -102 t-57.5 -84t-85 -57t-103.5 -21z" />
<glyph unicode="&#x2db;" horiz-adv-x="973" d="M492 -500q-58 0 -105 16t-80 45t-51 69.5t-18 90.5q0 103 74.5 179.5t205.5 119.5h184q-69 -28 -116 -62.5t-76.5 -71.5t-42 -73.5t-12.5 -68.5q0 -48 22.5 -69t54.5 -21q28 0 48 11.5t32 27.5l123 -88q-15 -17 -36.5 -35.5t-50.5 -34t-67.5 -25.5t-88.5 -10z" />
<glyph unicode="&#x2dc;" horiz-adv-x="973" d="M647 1194q-54 0 -99.5 14.5t-85.5 32.5t-77 32.5t-76 14.5q-38 0 -65.5 -19.5t-30.5 -66.5h-125q0 61 12 113t39.5 90t73 59t111.5 21q54 0 99.5 -14.5t85.5 -32.5t77 -32.5t76 -14.5q38 0 65.5 19.5t30.5 66.5h125q0 -62 -12 -113.5t-40 -89.5t-73 -59t-111 -21z" />
<glyph unicode="&#x2dd;" horiz-adv-x="973" d="M209 1180h-258l291 319h331zM659 1180h-258l291 319h332z" />
<glyph unicode="&#x3bc;" horiz-adv-x="1221" d="M801 0v96q-29 -52 -85 -86.5t-134 -34.5q-53 0 -95 16t-65 36v-312l-268 -125v1457h266v-615q0 -53 14 -91t38.5 -62.5t58 -36t71.5 -11.5q42 0 78 10.5t63 34t42.5 61t15.5 91.5v619h266v-1047h-266z" />
<glyph unicode="&#x3c0;" horiz-adv-x="1364" d="M1055 -25q-68 0 -116 19t-79 54.5t-45 87t-14 116.5v518h-238v-37q0 -133 -10 -251.5t-41.5 -218t-90 -179t-155.5 -133.5l-225 178q51 31 98.5 69t85 97t60 145.5t22.5 214.5v115h-178v277h1165v-277h-227v-479q0 -40 19.5 -61t54.5 -21q40 0 82.5 11.5t89.5 33.5 l-31 -231q-46 -23 -104 -35.5t-123 -12.5z" />
<glyph unicode="&#x1e80;" horiz-adv-x="1786" d="M1694 1434l-310 -1434h-258l-217 844q-9 34 -13 60.5l-7 47.5q-3 -21 -8 -47.5t-13 -58.5l-211 -846h-258l-307 1434h285l160 -807q8 -37 11.5 -61l6.5 -46q3 22 7 46.5t13 62.5l197 805h240l200 -805q10 -38 14 -62.5t7 -46.5l6.5 46t11.5 61l160 807h283zM914 1569 l-365 319h332l291 -319h-258z" />
<glyph unicode="&#x1e81;" horiz-adv-x="1538" d="M1171 0h-235l-133 522q-4 14 -8.5 33.5l-9.5 41l-9.5 42.5t-7.5 39q-3 -18 -7.5 -39l-9.5 -42.5l-9.5 -41t-8.5 -33.5l-133 -522h-235l-293 1047h262l123 -510q8 -31 14 -68.5t12 -69.5l15 69.5t16 68.5l133 510h242l131 -510q8 -31 16 -68.5l15 -69.5q6 32 12 69.5 t14 68.5l127 510h262zM789 1180l-365 319h332l291 -319h-258z" />
<glyph unicode="&#x1e82;" horiz-adv-x="1786" d="M1694 1434l-310 -1434h-258l-217 844q-9 34 -13 60.5l-7 47.5q-3 -21 -8 -47.5t-13 -58.5l-211 -846h-258l-307 1434h285l160 -807q8 -37 11.5 -61l6.5 -46q3 22 7 46.5t13 62.5l197 805h240l200 -805q10 -38 14 -62.5t7 -46.5l6.5 46t11.5 61l160 807h283zM872 1569 h-258l291 319h332z" />
<glyph unicode="&#x1e83;" horiz-adv-x="1538" d="M1171 0h-235l-133 522q-4 14 -8.5 33.5l-9.5 41l-9.5 42.5t-7.5 39q-3 -18 -7.5 -39l-9.5 -42.5l-9.5 -41t-8.5 -33.5l-133 -522h-235l-293 1047h262l123 -510q8 -31 14 -68.5t12 -69.5l15 69.5t16 68.5l133 510h242l131 -510q8 -31 16 -68.5l15 -69.5q6 32 12 69.5 t14 68.5l127 510h262zM747 1180h-258l291 319h332z" />
<glyph unicode="&#x1e84;" horiz-adv-x="1786" d="M1694 1434l-310 -1434h-258l-217 844q-9 34 -13 60.5l-7 47.5q-3 -21 -8 -47.5t-13 -58.5l-211 -846h-258l-307 1434h285l160 -807q8 -37 11.5 -61l6.5 -46q3 22 7 46.5t13 62.5l197 805h240l200 -805q10 -38 14 -62.5t7 -46.5l6.5 46t11.5 61l160 807h283zM699 1579 q-32 0 -59 11.5t-47.5 31.5t-32 47t-11.5 59q0 31 11.5 58.5t32 48t47.5 32t59 11.5q31 0 58.5 -11.5t47.5 -32t31.5 -48t11.5 -58.5q0 -32 -11.5 -59t-31.5 -47t-47.5 -31.5t-58.5 -11.5zM1088 1579q-32 0 -59 11.5t-47.5 31.5t-32 47t-11.5 59q0 31 11.5 58.5t32 48 t47.5 32t59 11.5q31 0 58.5 -11.5t47.5 -32t31.5 -48t11.5 -58.5q0 -32 -11.5 -59t-31.5 -47t-47.5 -31.5t-58.5 -11.5z" />
<glyph unicode="&#x1e85;" horiz-adv-x="1538" d="M1171 0h-235l-133 522q-4 14 -8.5 33.5l-9.5 41l-9.5 42.5t-7.5 39q-3 -18 -7.5 -39l-9.5 -42.5l-9.5 -41t-8.5 -33.5l-133 -522h-235l-293 1047h262l123 -510q8 -31 14 -68.5t12 -69.5l15 69.5t16 68.5l133 510h242l131 -510q8 -31 16 -68.5l15 -69.5q6 32 12 69.5 t14 68.5l127 510h262zM574 1190q-32 0 -59 11.5t-47.5 31.5t-32 47t-11.5 59q0 31 11.5 58.5t32 48t47.5 32t59 11.5q31 0 58.5 -11.5t47.5 -32t31.5 -48t11.5 -58.5q0 -32 -11.5 -59t-31.5 -47t-47.5 -31.5t-58.5 -11.5zM963 1190q-32 0 -59 11.5t-47.5 31.5t-32 47 t-11.5 59q0 31 11.5 58.5t32 48t47.5 32t59 11.5q31 0 58.5 -11.5t47.5 -32t31.5 -48t11.5 -58.5q0 -32 -11.5 -59t-31.5 -47t-47.5 -31.5t-58.5 -11.5z" />
<glyph unicode="&#x1ef2;" horiz-adv-x="1458" d="M592 0v559l-531 875h314l354 -586l354 586h314l-531 -875v-559h-274zM709 1569l-365 319h332l291 -319h-258z" />
<glyph unicode="&#x1ef3;" horiz-adv-x="1167" d="M561 -397h-276l159 411l-393 1033h273l229 -605q18 -47 31 -96q6 25 14 49l16 47l230 605h272zM607 1180l-365 319h332l291 -319h-258z" />
<glyph unicode="&#x2000;" horiz-adv-x="995" />
<glyph unicode="&#x2001;" horiz-adv-x="1991" />
<glyph unicode="&#x2002;" horiz-adv-x="995" />
<glyph unicode="&#x2003;" horiz-adv-x="1991" />
<glyph unicode="&#x2004;" horiz-adv-x="663" />
<glyph unicode="&#x2005;" horiz-adv-x="497" />
<glyph unicode="&#x2006;" horiz-adv-x="331" />
<glyph unicode="&#x2007;" horiz-adv-x="331" />
<glyph unicode="&#x2008;" horiz-adv-x="248" />
<glyph unicode="&#x2009;" horiz-adv-x="398" />
<glyph unicode="&#x200a;" horiz-adv-x="110" />
<glyph unicode="&#x2010;" horiz-adv-x="844" d="M154 477v256h536v-256h-536z" />
<glyph unicode="&#x2011;" horiz-adv-x="844" d="M154 477v256h536v-256h-536z" />
<glyph unicode="&#x2012;" horiz-adv-x="844" d="M154 477v256h536v-256h-536z" />
<glyph unicode="&#x2013;" horiz-adv-x="1014" d="M102 471v234h809v-234h-809z" />
<glyph unicode="&#x2014;" horiz-adv-x="1178" d="M-10 471v234h1198v-234h-1198z" />
<glyph unicode="&#x2015;" horiz-adv-x="1178" d="M-10 471v234h1198v-234h-1198z" />
<glyph unicode="&#x2018;" horiz-adv-x="506" d="M434 1374q-14 -12 -33 -34t-38.5 -48t-36 -54t-25.5 -52q50 -16 83.5 -56.5t33.5 -103.5q0 -38 -14 -69.5t-38 -54t-55 -34.5t-65 -12q-36 0 -67.5 13t-55.5 38t-37.5 61.5t-13.5 84.5q0 60 20 118.5t54.5 112t80 98t95.5 76.5z" />
<glyph unicode="&#x2019;" horiz-adv-x="506" d="M72 940q14 12 33 34t38.5 48t36 54t25.5 52q-50 16 -83.5 56.5t-33.5 103.5q0 39 14 70t38 53.5t55 34.5t65 12q36 0 67.5 -13t55.5 -37.5t37.5 -61t13.5 -84.5q0 -60 -20.5 -119t-55 -112.5t-79.5 -98.5t-95 -76z" />
<glyph unicode="&#x201a;" horiz-adv-x="506" d="M72 -205q14 12 33 34t38.5 48t36 54t25.5 53q-50 15 -83.5 55.5t-33.5 103.5q0 39 14 70t38 53.5t55 34.5t65 12q36 0 67.5 -13t55.5 -37.5t37.5 -61t13.5 -84.5q0 -60 -20.5 -119t-55 -112.5t-79.5 -98.5t-95 -76z" />
<glyph unicode="&#x201b;" horiz-adv-x="506" d="M322 856q-50 31 -95.5 76t-80 98.5t-54.5 112.5t-20 119q0 48 13.5 84.5t37.5 61t55.5 37.5t67.5 13q34 0 65 -12t55 -34.5t38 -53.5t14 -70q0 -63 -33.5 -103.5t-83.5 -56.5q9 -24 25.5 -52t36 -54t38.5 -48t33 -34z" />
<glyph unicode="&#x201c;" horiz-adv-x="995" d="M434 1374q-14 -12 -33 -34t-38.5 -48t-36 -54t-25.5 -52q50 -16 83.5 -56.5t33.5 -103.5q0 -38 -14 -69.5t-38 -54t-55 -34.5t-65 -12q-36 0 -67.5 13t-55.5 38t-37.5 61.5t-13.5 84.5q0 60 20 118.5t54.5 112t80 98t95.5 76.5zM924 1374q-14 -12 -33.5 -34t-39 -48 t-36 -54t-24.5 -52q49 -16 82.5 -56.5t33.5 -103.5q0 -38 -14 -69.5t-38 -54t-55 -34.5t-65 -12q-36 0 -67.5 13t-55.5 38t-37.5 61.5t-13.5 84.5q0 60 20.5 118.5t55 112t79.5 98t95 76.5z" />
<glyph unicode="&#x201d;" horiz-adv-x="995" d="M72 940q14 12 33 34t38.5 48t36 54t25.5 52q-50 16 -83.5 56.5t-33.5 103.5q0 39 14 70t38 53.5t55 34.5t65 12q36 0 67.5 -13t55.5 -37.5t37.5 -61t13.5 -84.5q0 -60 -20.5 -119t-55 -112.5t-79.5 -98.5t-95 -76zM561 940q14 12 33.5 34t39 48t36 54t24.5 52 q-49 16 -82.5 56.5t-33.5 103.5q0 39 14 70t38 53.5t55 34.5t65 12q36 0 67.5 -13t55.5 -37.5t37.5 -61t13.5 -84.5q0 -60 -20.5 -119t-55 -112.5t-79.5 -98.5t-95 -76z" />
<glyph unicode="&#x201e;" horiz-adv-x="995" d="M72 -205q14 12 33 34t38.5 48t36 54t25.5 53q-50 15 -83.5 55.5t-33.5 103.5q0 39 14 70t38 53.5t55 34.5t65 12q36 0 67.5 -13t55.5 -37.5t37.5 -61t13.5 -84.5q0 -60 -20.5 -119t-55 -112.5t-79.5 -98.5t-95 -76zM561 -205q14 12 33.5 34t39 48t36 54t24.5 53 q-49 15 -82.5 55.5t-33.5 103.5q0 39 14 70t38 53.5t55 34.5t65 12q36 0 67.5 -13t55.5 -37.5t37.5 -61t13.5 -84.5q0 -60 -20.5 -119t-55 -112.5t-79.5 -98.5t-95 -76z" />
<glyph unicode="&#x2020;" horiz-adv-x="1196" d="M715 868l16 -184l-63 -973h-140l-63 973l16 184l-205 -26h-143v256h143l205 -29l-16 133v256h266v-256l-16 -133l205 29h143v-256h-143z" />
<glyph unicode="&#x2021;" horiz-adv-x="1196" d="M920 328h143v-256h-143l-205 28l16 -133v-256h-266v256l16 133l-205 -28h-143v256h143l205 -27l-16 184v199l16 184l-205 -26h-143v256h143l205 -29l-16 133v256h266v-256l-16 -133l205 29h143v-256h-143l-205 26l16 -184v-199l-16 -184z" />
<glyph unicode="&#x2022;" horiz-adv-x="862" d="M428 420q-65 0 -121 23t-97 63t-64 94.5t-23 116.5q0 61 23 115.5t64 95.5t97 64.5t121 23.5t122 -23.5t99 -64.5t66 -95.5t24 -115.5q0 -62 -24 -116.5t-66 -94.5t-99 -63t-122 -23z" />
<glyph unicode="&#x2026;" horiz-adv-x="2144" d="M356 -25q-37 0 -68.5 13t-54.5 35.5t-36 53.5t-13 66q0 36 13 67t36 54t54.5 36t68.5 13t69 -13t55 -36t36.5 -54t13.5 -67q0 -35 -13.5 -66t-36.5 -53.5t-55 -35.5t-69 -13zM1071 -25q-37 0 -68.5 13t-54.5 35.5t-36 53.5t-13 66q0 36 13 67t36 54t54.5 36t68.5 13 t68.5 -13t55 -36t37 -54t13.5 -67q0 -35 -13.5 -66t-37 -53.5t-55 -35.5t-68.5 -13zM1786 -25q-37 0 -68.5 13t-54.5 35.5t-36 53.5t-13 66q0 36 13 67t36 54t54.5 36t68.5 13t68.5 -13t55 -36t37 -54t13.5 -67q0 -35 -13.5 -66t-37 -53.5t-55 -35.5t-68.5 -13z" />
<glyph unicode="&#x202f;" horiz-adv-x="398" />
<glyph unicode="&#x2030;" horiz-adv-x="2540" d="M440 709q-95 0 -161.5 33.5t-108 87.5t-60 120.5t-18.5 132.5q0 41 8 84.5t25.5 85.5t44.5 79t66 65t89.5 44.5t114.5 16.5q95 0 161.5 -33.5t108 -87.5t60 -121t18.5 -133q0 -61 -18 -127t-58.5 -121t-107.5 -90.5t-164 -35.5zM440 930q31 0 53.5 12.5t37 33.5 t21.5 48.5t7 58.5q0 69 -29.5 111.5t-89.5 42.5q-31 0 -53 -12.5t-36.5 -33.5t-21.5 -49t-7 -59q0 -68 29 -110.5t89 -42.5zM508 -25h-264l977 1483h264zM1288 -25q-96 0 -162.5 34t-107.5 87.5t-59.5 120.5t-18.5 133q0 41 8 84.5t25.5 85.5t44.5 79t66 65t89.5 44.5 t114.5 16.5q95 0 161.5 -34t108 -87.5t60 -120.5t18.5 -133q0 -62 -18 -128t-58.5 -121t-107.5 -90.5t-164 -35.5zM1288 197q31 0 53.5 12.5t37 33.5t21.5 48.5t7 58.5q0 68 -29.5 111t-89.5 43q-31 0 -53.5 -12.5t-37 -33.5t-21.5 -49t-7 -59q0 -68 28.5 -110.5t90.5 -42.5 zM2099 -25q-96 0 -162.5 34t-107.5 87.5t-59.5 120.5t-18.5 133q0 41 8 84.5t25.5 85.5t44.5 79t66 65t89.5 44.5t114.5 16.5q95 0 161.5 -34t108 -87.5t60 -120.5t18.5 -133q0 -62 -18 -128t-58.5 -121t-107.5 -90.5t-164 -35.5zM2099 197q31 0 53.5 12.5t37 33.5 t21.5 48.5t7 58.5q0 68 -29.5 111t-89.5 43q-31 0 -53.5 -12.5t-37 -33.5t-21.5 -49t-7 -59q0 -68 28.5 -110.5t90.5 -42.5z" />
<glyph unicode="&#x2032;" horiz-adv-x="508" d="M113 1495h323l-131 -682h-233z" />
<glyph unicode="&#x2033;" horiz-adv-x="918" d="M113 1495h323l-131 -682h-233zM522 1495h324l-131 -682h-234z" />
<glyph unicode="&#x2039;" horiz-adv-x="690" d="M373 0l-312 524l312 523h286l-311 -523l311 -524h-286z" />
<glyph unicode="&#x203a;" horiz-adv-x="690" d="M31 0l311 524l-311 523h286l312 -523l-312 -524h-286z" />
<glyph unicode="&#x2044;" horiz-adv-x="743" d="M-246 -25l979 1483h256l-979 -1483h-256z" />
<glyph unicode="&#x205f;" horiz-adv-x="497" />
<glyph unicode="&#x207f;" horiz-adv-x="987" d="M655 580v505q0 43 -11.5 74t-31.5 51t-47.5 29.5t-58.5 9.5q-35 0 -64.5 -8.5t-52 -28t-35 -50t-12.5 -75.5v-507h-219v858h219v-80q38 48 96.5 74t132.5 26q55 0 109.5 -17t97.5 -56t69.5 -104t26.5 -161v-540h-219z" />
<glyph unicode="&#x20a4;" horiz-adv-x="1253" d="M584 401q-13 -40 -30 -76t-40 -65h678v-260h-1016v254q48 22 80.5 61.5t50.5 85.5h-153v205h178q-6 35 -16.5 69t-22.5 66h-139v205h67q-5 20 -6.5 41.5t-1.5 44.5q0 81 29.5 157.5t91 136t156 96t223.5 36.5q73 0 134.5 -9.5t117 -28.5t106.5 -47.5t103 -65.5l-105 -254 q-28 23 -62 48.5t-77 47t-96.5 35.5t-120.5 14q-61 0 -104 -14t-70 -36.5t-39.5 -52.5t-12.5 -61q0 -23 4.5 -44.5t10.5 -43.5h407v-205h-321q9 -31 14.5 -64t7.5 -71h299v-205h-325z" />
<glyph unicode="&#x20ac;" horiz-adv-x="1309" d="M557 440q23 -99 80 -154t143 -55q71 0 129 38.5t105 107.5l213 -131q-37 -61 -83.5 -111t-102.5 -85.5t-121 -55t-140 -19.5q-117 0 -203.5 35.5t-148 98.5t-99.5 148.5t-57 186.5h-192l86 197h80q-1 9 -1.5 20.5t-0.5 22.5v20v13v18t2 29h-166l86 199h106 q20 101 60.5 191t104.5 157.5t154 107t210 39.5q94 0 190.5 -30.5t200.5 -106.5l-98 -242q-29 25 -60.5 47.5t-67.5 39.5t-76.5 26.5t-88.5 9.5q-50 0 -89.5 -17.5t-70.5 -49t-52.5 -75t-35.5 -95.5h496l-82 -201h-445q-2 -20 -2 -29.5v-17.5v-13v-20t0.5 -22.5t1.5 -20.5 h398l-82 -201h-281z" />
<glyph unicode="&#x2105;" horiz-adv-x="2198" d="M496 557q-90 0 -163 30.5t-124 88.5t-79 142t-28 190q0 105 28 188.5t79 141.5t124 89t163 31q133 0 224.5 -60.5t133.5 -191.5l-209 -69q-18 49 -56.5 80.5t-92.5 31.5q-41 0 -73 -17.5t-54.5 -49t-34.5 -76t-12 -98.5q0 -56 12 -100.5t34 -76t53.5 -48.5t70.5 -17 q57 0 97.5 32.5t57.5 94.5l209 -64q-38 -136 -129 -204t-231 -68zM1700 -25q-91 0 -164 30.5t-124.5 88.5t-79 141.5t-27.5 188.5t27.5 188.5t79 141.5t124.5 89t164 31t164 -31t124.5 -89t79 -141.5t27.5 -188.5t-27.5 -188.5t-79 -141.5t-124.5 -88.5t-164 -30.5z M1700 184q81 0 128.5 63.5t47.5 176.5q0 56 -12.5 100.5t-35 76t-55.5 48.5t-73 17q-84 0 -130 -65t-46 -177q0 -113 46 -176.5t130 -63.5zM475 -25l979 1483h236l-979 -1483h-236z" />
<glyph unicode="&#x2113;" horiz-adv-x="1020" d="M535 -25q-59 0 -108 14.5t-84 46t-55 81t-20 119.5v174q-15 -8 -35.5 -18t-35.5 -15l-84 213q46 20 87.5 42l67.5 36v362q0 121 22.5 203.5t65.5 132t104 71t138 21.5q71 0 131.5 -20t104.5 -59.5t69 -98t25 -135.5q0 -114 -38 -203.5t-96 -160.5t-127 -125.5t-132 -96.5 v-254q0 -57 17.5 -76.5t49.5 -19.5q35 0 78 25t86 71l82 -190q-60 -66 -141 -103t-172 -37zM598 1253q-17 0 -29 -8t-19.5 -30.5t-11 -64t-3.5 -108.5v-211q26 24 49 54.5t40.5 66.5t27.5 77.5t10 88.5q0 65 -15 100t-49 35z" />
<glyph unicode="&#x2116;" horiz-adv-x="2435" d="M1081 0l-569 836q-14 21 -30.5 51.5t-28.5 56.5q3 -23 4.5 -54t1.5 -54v-836h-275v1434h260l555 -826q13 -20 30 -50t30 -58q-3 29 -4.5 58.5t-1.5 49.5v826h274v-1434h-246zM1493 213v217h788v-217h-788zM1888 559q-90 0 -163 30.5t-124.5 88.5t-79.5 141.5t-28 188.5 t28 188.5t79.5 141.5t124.5 89t163 31q91 0 163.5 -31t123.5 -89t78.5 -141.5t27.5 -188.5t-27.5 -188.5t-78.5 -141.5t-123.5 -88.5t-163.5 -30.5zM1888 770q82 0 129 62.5t47 175.5q0 112 -47 176.5t-129 64.5q-83 0 -129.5 -64.5t-46.5 -176.5q0 -113 46.5 -175.5 t129.5 -62.5z" />
<glyph unicode="&#x2122;" horiz-adv-x="1731" d="M457 1251v-682h-199v682h-217v183h631v-183h-215zM1389 569v531l-19 -56l-213 -491l-215 491l-20 62v-537h-199v865h242l172 -398l18 -51l19 51l172 398h241v-865h-198z" />
<glyph unicode="&#x2126;" horiz-adv-x="1532" d="M844 0v219q64 68 111.5 133t79 133.5t47.5 144.5t16 167q0 72 -16.5 142.5t-55 127t-102.5 91t-158 34.5q-95 0 -158.5 -35t-102 -91t-55 -127t-16.5 -144q0 -90 16 -165.5t47.5 -144t79 -133.5t111.5 -133v-219h-545v266h232q-49 48 -91 106t-72.5 125t-47.5 142.5 t-17 159.5q0 77 14 155.5t44.5 152t79 137.5t117 111.5t159 75t205.5 27.5t205.5 -27.5t159 -75t116.5 -111.5t78.5 -137.5t44.5 -152t14 -155.5q0 -84 -17.5 -159.5t-48 -142.5t-72.5 -125t-91 -106h234v-266h-545z" />
<glyph unicode="&#x212e;" horiz-adv-x="1597" d="M809 -25q-96 0 -186 23.5t-168.5 68t-143.5 109.5t-111.5 147.5t-72 181.5t-25.5 212q0 125 27.5 229.5t76 187.5t115.5 145t146.5 103t167.5 61.5t180 20.5q130 0 250 -47t213 -141t151 -233.5t66 -325.5h-1071v-449q24 -35 62.5 -66t88 -54t108.5 -36.5t126 -13.5 q146 0 272 67t224 218l104 -64q-52 -78 -111 -141.5t-131 -108.5t-160 -69.5t-198 -24.5zM1184 1182q-29 34 -69 63t-88.5 50.5t-104 33.5t-113.5 12q-121 0 -217 -36.5t-168 -104.5v-364l760 2v344z" />
<glyph unicode="&#x2153;" horiz-adv-x="1544" d="M28 -25l979 1483h256l-979 -1483h-256zM125 580v634h-105v170q35 0 60 4t42.5 12t29.5 19t20 25h178v-864h-225zM870 674q40 97 119 151t184 54q65 0 116 -20t86.5 -54t54 -78.5t18.5 -93.5q0 -32 -9 -60t-24 -52t-34.5 -42.5t-41.5 -29.5q63 -23 100 -73t37 -124 q0 -59 -20.5 -107.5t-60.5 -84t-97.5 -55t-132.5 -19.5q-121 0 -203.5 66.5t-119.5 185.5l206 53q14 -54 45.5 -79.5t73.5 -25.5t65 23.5t23 58.5q0 37 -25 59.5t-85 22.5h-78v189h76q46 0 65 20.5t19 48.5q0 29 -19 49.5t-53 20.5q-40 0 -61 -20t-35 -54z" />
<glyph unicode="&#x2154;" horiz-adv-x="1876" d="M360 -25l979 1483h256l-979 -1483h-256zM51 1202q17 57 47 104t71.5 81t94.5 52.5t115 18.5q68 0 123.5 -19.5t95 -54.5t61 -84t21.5 -108q0 -61 -18 -103.5t-48.5 -74.5t-71.5 -56.5t-87 -48.5q-51 -28 -87 -57t-53 -64h363v-208h-629q0 100 23 179t63.5 140.5t95.5 107 t119 78.5l35.5 20.5t31 22.5t21.5 25.5t8 30.5q0 29 -19.5 49t-57.5 20q-47 0 -74 -26t-41 -74zM1202 674q40 97 119 151t184 54q65 0 116 -20t86.5 -54t54 -78.5t18.5 -93.5q0 -32 -9 -60t-24 -52t-34.5 -42.5t-41.5 -29.5q63 -23 100 -73t37 -124q0 -59 -20.5 -107.5 t-60.5 -84t-97.5 -55t-132.5 -19.5q-121 0 -203.5 66.5t-119.5 185.5l206 53q14 -54 45.5 -79.5t73.5 -25.5t65 23.5t23 58.5q0 37 -25 59.5t-85 22.5h-78v189h76q46 0 65 20.5t19 48.5q0 29 -19 49.5t-53 20.5q-40 0 -61 -20t-35 -54z" />
<glyph unicode="&#x215b;" horiz-adv-x="1556" d="M28 -25l979 1483h256l-979 -1483h-256zM125 580v634h-105v170q35 0 60 4t42.5 12t29.5 19t20 25h178v-864h-225zM1167 -16q-71 0 -130 19.5t-101.5 55.5t-66 86.5t-23.5 112.5q0 36 11.5 69t30.5 60.5t44.5 49t54.5 34.5q-45 25 -76 69.5t-31 104.5q0 51 20 94t57 74 t90 48.5t120 17.5t120.5 -17.5t90.5 -48.5t56.5 -74t19.5 -94q0 -57 -31 -103t-76 -71q29 -13 55 -34.5t45.5 -49t30.5 -60.5t11 -69q0 -62 -23 -112.5t-65.5 -86.5t-102 -55.5t-131.5 -19.5zM1167 152q57 0 92 29t35 77q0 51 -35 84t-92 33t-92 -33t-35 -84q0 -48 35 -77 t92 -29zM1167 565q42 0 64 20.5t22 49.5t-22 51.5t-64 22.5q-18 0 -34 -6t-27.5 -16.5t-18 -23.5t-6.5 -28q0 -29 24.5 -49.5t61.5 -20.5z" />
<glyph unicode="&#x215c;" horiz-adv-x="1796" d="M268 -25l979 1483h256l-979 -1483h-256zM53 1253q40 97 119 151t184 54q65 0 116 -20t86.5 -54t54 -78.5t18.5 -93.5q0 -32 -9 -60t-24 -52t-34.5 -42t-41.5 -30q63 -23 100 -72.5t37 -124.5q0 -58 -20.5 -107t-60.5 -84t-97.5 -55t-132.5 -20q-121 0 -203.5 66.5 t-119.5 185.5l206 53q14 -54 45.5 -79t73.5 -25t65 23.5t23 58.5q0 37 -25 59.5t-85 22.5h-78v188h76q46 0 65 21t19 49q0 29 -19 49t-53 20q-40 0 -61 -19.5t-35 -53.5zM1407 -16q-71 0 -130 19.5t-101.5 55.5t-66 86.5t-23.5 112.5q0 36 11.5 69t30.5 60.5t44.5 49 t54.5 34.5q-45 25 -76 69.5t-31 104.5q0 51 20 94t57 74t90 48.5t120 17.5t120.5 -17.5t90.5 -48.5t56.5 -74t19.5 -94q0 -57 -31 -103t-76 -71q29 -13 55 -34.5t45.5 -49t30.5 -60.5t11 -69q0 -62 -23 -112.5t-65.5 -86.5t-102 -55.5t-131.5 -19.5zM1407 152q57 0 92 29 t35 77q0 51 -35 84t-92 33t-92 -33t-35 -84q0 -48 35 -77t92 -29zM1407 565q42 0 64 20.5t22 49.5t-22 51.5t-64 22.5q-18 0 -34 -6t-27.5 -16.5t-18 -23.5t-6.5 -28q0 -29 24.5 -49.5t61.5 -20.5z" />
<glyph unicode="&#x215d;" horiz-adv-x="1790" d="M262 -25l979 1483h256l-979 -1483h-256zM158 823q37 -26 80.5 -43.5t91.5 -17.5q57 0 93 28t36 76q0 50 -27 74.5t-67 24.5q-38 0 -64.5 -18t-48.5 -60l-186 98l24 473h541v-196h-352l-9 -129q22 11 53.5 19.5t71.5 8.5q72 0 125.5 -24.5t89 -64.5t53 -92.5t17.5 -107.5 q0 -73 -25.5 -130t-70.5 -96.5t-107 -60t-135 -20.5q-54 0 -98 8t-80.5 21.5t-66 30t-54.5 34.5zM1401 -16q-71 0 -130 19.5t-101.5 55.5t-66 86.5t-23.5 112.5q0 36 11.5 69t30.5 60.5t44.5 49t54.5 34.5q-45 25 -76 69.5t-31 104.5q0 51 20 94t57 74t90 48.5t120 17.5 t120.5 -17.5t90.5 -48.5t56.5 -74t19.5 -94q0 -57 -31 -103t-76 -71q29 -13 55 -34.5t45.5 -49t30.5 -60.5t11 -69q0 -62 -23 -112.5t-65.5 -86.5t-102 -55.5t-131.5 -19.5zM1401 152q57 0 92 29t35 77q0 51 -35 84t-92 33t-92 -33t-35 -84q0 -48 35 -77t92 -29zM1401 565 q42 0 64 20.5t22 49.5t-22 51.5t-64 22.5q-18 0 -34 -6t-27.5 -16.5t-18 -23.5t-6.5 -28q0 -29 24.5 -49.5t61.5 -20.5z" />
<glyph unicode="&#x215e;" horiz-adv-x="1608" d="M80 -25l979 1483h256l-979 -1483h-256zM178 580q1 103 15.5 195t41 175.5t63 157.5t81.5 141h-369v209h619v-174q-43 -50 -76.5 -109t-58 -122t-42 -127.5t-28 -126t-15.5 -117.5t-6 -102h-225zM1218 -16q-71 0 -130 19.5t-101.5 55.5t-66 86.5t-23.5 112.5q0 36 11.5 69 t30.5 60.5t44.5 49t54.5 34.5q-45 25 -76 69.5t-31 104.5q0 51 20 94t57 74t90 48.5t120 17.5t120.5 -17.5t90.5 -48.5t56.5 -74t19.5 -94q0 -57 -31 -103t-76 -71q29 -13 55 -34.5t45.5 -49t30.5 -60.5t11 -69q0 -62 -23 -112.5t-65.5 -86.5t-102 -55.5t-131.5 -19.5z M1218 152q57 0 92 29t35 77q0 51 -35 84t-92 33t-92 -33t-35 -84q0 -48 35 -77t92 -29zM1218 565q42 0 64 20.5t22 49.5t-22 51.5t-64 22.5q-18 0 -34 -6t-27.5 -16.5t-18 -23.5t-6.5 -28q0 -29 24.5 -49.5t61.5 -20.5z" />
<glyph unicode="&#x2202;" horiz-adv-x="1221" d="M526 -25q-105 0 -191 30t-146.5 87.5t-94 142.5t-33.5 195q0 108 41.5 196t110.5 151t160 97.5t190 34.5q51 0 92 -7t73.5 -19.5t58.5 -29.5t49 -38q-14 104 -58 176t-107.5 117.5t-141 67.5t-158.5 26l65 256q181 -18 309 -77t208.5 -156.5t117.5 -233.5t37 -309 q0 -91 -13.5 -178.5t-43 -166t-75.5 -145t-110.5 -115t-149 -75.5t-190.5 -27zM547 231q56 0 102.5 18t80.5 49.5t52.5 73t18.5 89.5q0 93 -58 142.5t-155 49.5q-56 0 -103 -18t-80.5 -49t-52 -73.5t-18.5 -90.5q0 -91 57 -141t156 -50z" />
<glyph unicode="&#x2206;" horiz-adv-x="1313" d="M20 0l510 1434h254l508 -1434h-1272zM700 922l-21 62.5t-20 66.5q-8 -31 -19.5 -66.5t-21.5 -62.5l-225 -662h529z" />
<glyph unicode="&#x220f;" horiz-adv-x="1509" d="M1059 -287v1465h-608v-1465h-267v1721h1141v-1721h-266z" />
<glyph unicode="&#x2211;" horiz-adv-x="1272" d="M92 -285v250l463 631l-434 590v250h1042v-256h-706l434 -586l-457 -623h766v-256h-1108z" />
<glyph unicode="&#x2212;" horiz-adv-x="1290" d="M164 573v258h962v-258h-962z" />
<glyph unicode="&#x2215;" horiz-adv-x="743" d="M-246 -25l979 1483h256l-979 -1483h-256z" />
<glyph unicode="&#x2219;" horiz-adv-x="494" d="M246 547q-37 0 -68.5 13t-54.5 35.5t-36 53.5t-13 66t13 66t36 54t54.5 36.5t68.5 13.5t68.5 -13.5t55 -36.5t37 -54t13.5 -66t-13.5 -66t-37 -53.5t-55 -35.5t-68.5 -13z" />
<glyph unicode="&#x221a;" horiz-adv-x="1184" d="M1122 1434l-438 -1434h-207l-385 723h289l168 -326l299 1037h274z" />
<glyph unicode="&#x221e;" horiz-adv-x="2073" d="M1491 225q-78 0 -145.5 19.5t-124 52.5t-103 77t-82.5 93q-37 -52 -82.5 -96.5t-101.5 -76.5t-123.5 -50.5t-148.5 -18.5q-107 0 -199.5 32t-161 93.5t-108 150.5t-39.5 204q0 114 39.5 203t108 150.5t161 93.5t199.5 32q81 0 148.5 -18.5t123.5 -50.5t101.5 -76.5 t82.5 -96.5q35 48 81 91.5t102.5 77t123.5 53.5t144 20q108 0 202 -32t163.5 -93.5t109 -150.5t39.5 -203q0 -115 -39.5 -204t-108.5 -150.5t-162 -93.5t-200 -32zM1485 481q53 0 98.5 15t79.5 43.5t53 70.5t19 95t-19 94.5t-53 70t-79.5 43.5t-98.5 15q-54 0 -100.5 -17.5 t-87 -48t-75 -71t-63.5 -86.5q29 -46 63.5 -87t75 -71.5t87 -48t100.5 -17.5zM586 481q53 0 100 17.5t88 48t76 71.5t63 87q-28 46 -63 86.5t-76 71t-88 48t-100 17.5t-98.5 -15t-78.5 -43.5t-52 -70t-19 -94.5t19 -95t52 -70.5t78.5 -43.5t98.5 -15z" />
<glyph unicode="&#x222b;" horiz-adv-x="881" d="M315 -287q-63 0 -119.5 12t-113.5 39v218q61 -23 94.5 -29t54.5 -6q34 0 55 17t21 54v1188q0 78 22.5 127t59 76.5t82.5 38t94 10.5q63 0 120 -11.5t114 -39.5v-217q-31 12 -54 18.5t-41 10.5t-31 5t-24 1q-34 0 -55 -17.5t-21 -54.5v-1188q0 -78 -22.5 -127t-59 -76.5 t-82.5 -38t-94 -10.5z" />
<glyph unicode="&#x2248;" horiz-adv-x="1290" d="M838 752q-66 0 -118.5 17t-96.5 38l-82.5 38t-75.5 17q-47 0 -68 -31t-26 -79h-211q0 73 16 140t51 118t90.5 81.5t133.5 30.5q65 0 116 -17t94.5 -38l82 -38t79.5 -17q47 0 68.5 30.5t26.5 79.5h210q0 -73 -15.5 -140t-50 -118t-90 -81.5t-134.5 -30.5zM838 285 q-66 0 -118.5 17t-96.5 38l-82.5 38t-75.5 17q-47 0 -68 -31t-26 -79h-211q0 73 16 140t51 118t90.5 81.5t133.5 30.5q65 0 116 -17t94.5 -38l82 -38t79.5 -17q47 0 68.5 30.5t26.5 79.5h210q0 -73 -15.5 -140t-50 -118t-90 -81.5t-134.5 -30.5z" />
<glyph unicode="&#x2260;" horiz-adv-x="1290" d="M614 346l-65 -151h-289l66 151h-187v258h297l86 197h-383v258h496l76 176h288l-75 -176h184v-258h-297l-84 -197h381v-258h-494z" />
<glyph unicode="&#x2264;" horiz-adv-x="1290" d="M1128 319l-964 353v211l964 350v-258l-589 -199l589 -198v-259zM164 0v258h962v-258h-962z" />
<glyph unicode="&#x2265;" horiz-adv-x="1290" d="M164 319v259l590 198l-590 199v258l964 -350v-211zM164 0v258h962v-258h-962z" />
<glyph unicode="&#x25ca;" horiz-adv-x="1245" d="M526 -25l-413 742l413 741h193l414 -741l-414 -742h-193zM623 1106l-224 -389l224 -389l223 389z" />
<glyph unicode="&#x25cc;" horiz-adv-x="1319" d="M113 735q0 29 18.5 46.5t46.5 17.5t45 -17.5t17 -46.5q0 -28 -17 -44.5t-45 -16.5t-46.5 16.5t-18.5 44.5zM1079 735q0 29 17 46.5t45 17.5q26 0 45.5 -17.5t19.5 -46.5q0 -28 -19.5 -44.5t-45.5 -16.5q-28 0 -45 16.5t-17 44.5zM598 254q0 28 17 45.5t44 17.5 q28 0 45 -17.5t17 -45.5t-17 -46t-45 -18q-27 0 -44 18t-17 46zM598 1217q0 29 17 47t44 18q28 0 45 -18t17 -47q0 -28 -17 -45t-45 -17q-27 0 -44 17t-17 45zM938 1077q0 28 17 45t44 17q28 0 46 -17t18 -45q0 -29 -18 -46t-46 -17q-27 0 -44 17t-17 46zM256 1077 q0 28 18 45t45 17q28 0 45 -17t17 -45q0 -29 -17 -46t-45 -17q-27 0 -45 17t-18 46zM938 395q0 28 17 46t44 18q28 0 46 -18t18 -46t-18 -44.5t-46 -16.5q-27 0 -44 16.5t-17 44.5zM256 395q0 28 18 46t45 18q28 0 45 -18t17 -46t-17 -44.5t-45 -16.5q-27 0 -45 16.5 t-18 44.5zM152 551q0 28 17.5 45.5t45.5 17.5q26 0 43.5 -17.5t17.5 -45.5t-17.5 -46t-43.5 -18q-28 0 -45.5 19t-17.5 45zM1042 920q0 26 18 45.5t44 19.5q28 0 45.5 -19.5t17.5 -45.5t-17.5 -44t-45.5 -18q-26 0 -44 18t-18 44zM782 291q0 28 18 45.5t44 17.5 q28 0 45.5 -17.5t17.5 -45.5t-17.5 -46t-45.5 -18q-26 0 -44 18t-18 46zM412 1180q0 29 17.5 47t45.5 18q26 0 44 -18t18 -47q0 -26 -18 -44t-44 -18q-28 0 -45.5 18t-17.5 44zM780 1180q0 28 18.5 45.5t43.5 17.5q29 0 47 -17.5t18 -45.5q0 -26 -18 -44t-47 -18 q-28 0 -45 18t-17 44zM152 920q0 27 17.5 45t45.5 18t46 -18t18 -45q0 -26 -19.5 -45t-44.5 -19q-28 0 -45.5 19t-17.5 45zM1040 553q0 26 19 43.5t45 17.5q28 0 45.5 -17.5t17.5 -43.5q0 -28 -17.5 -46t-45.5 -18t-46 18t-18 46zM412 293q0 26 18 43.5t47 17.5 q26 0 44 -17.5t18 -43.5q0 -28 -19.5 -47t-42.5 -19q-29 0 -47 19t-18 47z" />
<glyph unicode="&#xe000;" horiz-adv-x="1045" d="M0 1045h1045v-1045h-1045v1045z" />
<glyph unicode="&#xe10a;" horiz-adv-x="823" d="M412 -14q-96 0 -160 39t-103 102.5t-55 143.5t-16 161q0 51 7 103.5t22.5 102.5t41 93.5t62.5 76.5t86.5 52t114.5 19q96 0 160 -39.5t102.5 -103.5t54.5 -143.5t16 -160.5q0 -50 -6.5 -102.5t-21.5 -102.5t-40 -93.5t-62 -76.5t-87.5 -52t-115.5 -19zM412 195 q29 0 49.5 19.5t33.5 52.5t19 76t6 89t-6 89t-19 76t-33.5 53t-49.5 20t-50 -20t-34 -53t-19 -76t-6 -89t6 -89t19 -76t34 -52.5t50 -19.5z" />
<glyph unicode="&#xe10b;" horiz-adv-x="459" d="M125 0v635h-105v170q35 0 60 4t42.5 11.5t29.5 18.5t20 25h178v-864h-225z" />
<glyph unicode="&#xe10c;" horiz-adv-x="758" d="M51 623q17 57 47 104t71.5 80.5t94.5 52.5t115 19q68 0 123.5 -19.5t95 -55t61 -84.5t21.5 -108q0 -60 -18 -103t-48.5 -75t-71.5 -56t-87 -48q-51 -28 -87 -57.5t-53 -63.5h363v-209h-629q0 100 23 179t63.5 140.5t95.5 107.5t119 79l35.5 20t31 22t21.5 25.5t8 30.5 q0 29 -19.5 49.5t-57.5 20.5q-47 0 -74 -26.5t-41 -74.5z" />
<glyph unicode="&#xe10d;" horiz-adv-x="727" d="M53 674q40 97 119 151t184 54q65 0 116 -20t86.5 -54t54 -78.5t18.5 -93.5q0 -32 -9 -60t-24 -52t-34.5 -42.5t-41.5 -29.5q63 -23 100 -73t37 -124q0 -59 -20.5 -107.5t-60.5 -84t-97.5 -55t-132.5 -19.5q-121 0 -203.5 66.5t-119.5 185.5l206 53q14 -54 45.5 -79.5 t73.5 -25.5t65 23.5t23 58.5q0 37 -25 59.5t-85 22.5h-78v189h76q46 0 65 20.5t19 48.5q0 29 -19 49.5t-53 20.5q-40 0 -61 -20t-35 -54z" />
<glyph unicode="&#xe10e;" horiz-adv-x="805" d="M434 0v164h-420v147l424 553h205v-512h115v-188h-115v-164h-209zM434 352v238l-180 -238h180z" />
<glyph unicode="&#xe10f;" horiz-adv-x="737" d="M158 244q37 -26 80.5 -44t91.5 -18q57 0 93 28.5t36 76.5q0 49 -27 73.5t-67 24.5q-38 0 -64.5 -18t-48.5 -60l-186 99l24 473h541v-197h-352l-9 -129q22 11 53.5 20t71.5 9q72 0 125.5 -24.5t89 -65t53 -92.5t17.5 -107q0 -73 -25.5 -130t-70.5 -96.5t-107 -60 t-135 -20.5q-54 0 -98 8t-80.5 21.5t-66 30t-54.5 34.5z" />
<glyph unicode="&#xe110;" horiz-adv-x="762" d="M397 -14q-82 0 -143 27t-101.5 74.5t-60.5 113t-20 143.5q0 107 32.5 199.5t99 164.5t168 120.5t238.5 66.5v-184q-49 -9 -95.5 -24t-86 -38t-69.5 -54.5t-46 -72.5q22 13 55.5 19t71.5 6q59 0 110.5 -18t89.5 -53.5t59.5 -87.5t21.5 -120q0 -65 -24 -117.5t-66.5 -89 t-102 -56t-131.5 -19.5zM391 170q53 0 89 26t36 72q0 48 -36 71t-89 23q-23 0 -44 -5.5t-36.5 -17.5t-25 -29.5t-9.5 -41.5q0 -23 9.5 -41t25 -31t36.5 -19.5t44 -6.5z" />
<glyph unicode="&#xe111;" horiz-adv-x="649" d="M178 0q1 103 15.5 195.5t41 175.5t63 157.5t81.5 141.5h-369v209h619v-174q-65 -75 -107.5 -169t-68.5 -190t-37.5 -186.5t-12.5 -159.5h-225z" />
<glyph unicode="&#xe112;" horiz-adv-x="776" d="M387 -16q-71 0 -130 19.5t-101.5 55.5t-66 86.5t-23.5 112.5q0 36 11.5 69t30.5 60.5t44.5 49t54.5 34.5q-45 25 -76 69.5t-31 104.5q0 51 20 94t57 74t90 48.5t120 17.5t120.5 -17.5t90.5 -48.5t56.5 -74t19.5 -94q0 -57 -31 -103t-76 -71q29 -13 55 -34.5t45.5 -49 t30.5 -60.5t11 -69q0 -62 -23 -112.5t-65.5 -86.5t-102 -55.5t-131.5 -19.5zM387 152q57 0 92 29t35 77q0 51 -35 84t-92 33t-92 -33t-35 -84q0 -48 35 -77t92 -29zM387 565q42 0 64 20.5t22 49.5t-22 51.5t-64 22.5q-18 0 -34 -6t-27.5 -16.5t-18 -23.5t-6.5 -28 q0 -29 24.5 -49.5t61.5 -20.5z" />
<glyph unicode="&#xe113;" horiz-adv-x="754" d="M186 170q99 2 167 42t96 130q-22 -12 -56 -18.5t-65 -6.5q-63 0 -115.5 18.5t-91 53.5t-59.5 87t-21 120q0 63 23.5 115t66 89.5t101.5 58t130 20.5q82 0 144 -27t102.5 -73.5t61 -109t20.5 -134.5q0 -112 -28 -210.5t-88.5 -173t-156.5 -118.5t-231 -47v184zM367 502 q49 0 83.5 23t34.5 71q0 46 -34.5 72t-83.5 26q-25 0 -47 -6.5t-38.5 -19.5t-26 -31t-9.5 -41q0 -24 9.5 -41.5t26 -29.5t38.5 -17.5t47 -5.5z" />
<glyph unicode="&#xe11e;" horiz-adv-x="823" d="M412 565q-96 0 -160 39.5t-103 103t-55 143.5t-16 161q0 51 7 103.5t22.5 102t41 93.5t62.5 76.5t86.5 51.5t114.5 19q96 0 160 -39.5t102.5 -103t54.5 -143t16 -160.5q0 -50 -6.5 -103t-21.5 -102.5t-40 -93.5t-62 -77t-87.5 -52t-115.5 -19zM412 774q29 0 49.5 20 t33.5 53t19 76t6 89t-6 89t-19 76t-33.5 52.5t-49.5 19.5t-50 -19.5t-34 -52.5t-19 -76t-6 -89t6 -89t19 -76t34 -53t50 -20z" />
<glyph unicode="&#xe11f;" horiz-adv-x="459" d="M125 580v634h-105v170q35 0 60 4t42.5 12t29.5 19t20 25h178v-864h-225z" />
<glyph unicode="&#xe120;" horiz-adv-x="758" d="M51 1202q17 57 47 104t71.5 81t94.5 52.5t115 18.5q68 0 123.5 -19.5t95 -54.5t61 -84t21.5 -108q0 -61 -18 -103.5t-48.5 -74.5t-71.5 -56.5t-87 -48.5q-51 -28 -87 -57t-53 -64h363v-208h-629q0 100 23 179t63.5 140.5t95.5 107t119 78.5l35.5 20.5t31 22.5t21.5 25.5 t8 30.5q0 29 -19.5 49t-57.5 20q-47 0 -74 -26t-41 -74z" />
<glyph unicode="&#xe121;" horiz-adv-x="727" d="M53 1253q40 97 119 151t184 54q65 0 116 -20t86.5 -54t54 -78.5t18.5 -93.5q0 -32 -9 -60t-24 -52t-34.5 -42t-41.5 -30q63 -23 100 -72.5t37 -124.5q0 -58 -20.5 -107t-60.5 -84t-97.5 -55t-132.5 -20q-121 0 -203.5 66.5t-119.5 185.5l206 53q14 -54 45.5 -79t73.5 -25 t65 23.5t23 58.5q0 37 -25 59.5t-85 22.5h-78v188h76q46 0 65 21t19 49q0 29 -19 49t-53 20q-40 0 -61 -19.5t-35 -53.5z" />
<glyph unicode="&#xe122;" horiz-adv-x="805" d="M434 580v163h-420v148l424 553h205v-512h115v-189h-115v-163h-209zM434 932v237l-180 -237h180z" />
<glyph unicode="&#xe123;" horiz-adv-x="737" d="M158 823q37 -26 80.5 -43.5t91.5 -17.5q57 0 93 28t36 76q0 50 -27 74.5t-67 24.5q-38 0 -64.5 -18t-48.5 -60l-186 98l24 473h541v-196h-352l-9 -129q22 11 53.5 19.5t71.5 8.5q72 0 125.5 -24.5t89 -64.5t53 -92.5t17.5 -107.5q0 -73 -25.5 -130t-70.5 -96.5t-107 -60 t-135 -20.5q-54 0 -98 8t-80.5 21.5t-66 30t-54.5 34.5z" />
<glyph unicode="&#xe124;" horiz-adv-x="762" d="M397 565q-82 0 -143 27t-101.5 75t-60.5 113.5t-20 143.5q0 106 32.5 198.5t99 164.5t168 120.5t238.5 67.5v-185q-49 -8 -95.5 -23.5t-86 -38.5t-69.5 -54.5t-46 -71.5q22 12 55.5 18t71.5 6q59 0 110.5 -18t89.5 -53.5t59.5 -87.5t21.5 -119q0 -65 -24 -117.5 t-66.5 -89.5t-102 -56.5t-131.5 -19.5zM391 750q53 0 89 25.5t36 72.5q0 24 -9.5 41.5t-26.5 29t-40 17.5t-49 6q-23 0 -44 -6t-36.5 -17.5t-25 -29t-9.5 -41.5q0 -23 9.5 -41.5t25 -31t36.5 -19t44 -6.5z" />
<glyph unicode="&#xe125;" horiz-adv-x="649" d="M178 580q1 103 15.5 195t41 175.5t63 157.5t81.5 141h-369v209h619v-174q-43 -50 -76.5 -109t-58 -122t-42 -127.5t-28 -126t-15.5 -117.5t-6 -102h-225z" />
<glyph unicode="&#xe126;" horiz-adv-x="776" d="M387 563q-71 0 -130 20t-101.5 56t-66 86.5t-23.5 112.5q0 36 11.5 69t30.5 60.5t44.5 49t54.5 34.5q-45 24 -76 69t-31 105q0 51 20 94t57 74t90 48t120 17t120.5 -17t90.5 -48t56.5 -74t19.5 -94q0 -57 -31 -103.5t-76 -70.5q29 -13 55 -34.5t45.5 -49t30.5 -60.5 t11 -69q0 -62 -23 -112.5t-65.5 -86.5t-102 -56t-131.5 -20zM387 731q57 0 92 29.5t35 77.5q0 51 -35 83.5t-92 32.5t-92 -32.5t-35 -83.5q0 -48 35 -77.5t92 -29.5zM387 1145q42 0 64 20t22 49t-22 51.5t-64 22.5q-18 0 -34 -6t-27.5 -16.5t-18 -23.5t-6.5 -28 q0 -29 24.5 -49t61.5 -20z" />
<glyph unicode="&#xe127;" horiz-adv-x="754" d="M186 750q99 2 167 42t96 130q-22 -13 -56 -19t-65 -6q-63 0 -115.5 18t-91 53.5t-59.5 87.5t-21 120q0 63 23.5 114.5t66 89t101.5 58t130 20.5q82 0 144 -26.5t102.5 -73t61 -109.5t20.5 -135q0 -112 -28 -210.5t-88.5 -173t-156.5 -118.5t-231 -47v185zM367 1081 q49 0 83.5 23.5t34.5 71.5q0 46 -34.5 72t-83.5 26q-25 0 -47 -6.5t-38.5 -19.5t-26 -31t-9.5 -41q0 -24 9.5 -42t26 -29.5t38.5 -17.5t47 -6z" />
<glyph unicode="&#xf005;" horiz-adv-x="973" d="M362 -516q35 34 62 70t41 81q-26 0 -50 9.5t-42.5 27.5t-29.5 43.5t-11 57.5q0 35 12 63.5t32 49t47.5 31.5t59.5 11q69 0 113.5 -43t44.5 -125q0 -98 -44.5 -177t-141.5 -158z" />
<glyph unicode="&#xf6c3;" horiz-adv-x="973" d="M641 1495v-16q0 -86 -16.5 -159t-46 -135.5t-71 -116.5t-91.5 -103l-86 65q14 28 25.5 77t20 110.5t13 132.5t4.5 145h248z" />
<glyph horiz-adv-x="1532" d="M844 0v219q64 68 111.5 133t79 133.5t47.5 144.5t16 167q0 72 -16.5 142.5t-55 127t-102.5 91t-158 34.5q-95 0 -158.5 -35t-102 -91t-55 -127t-16.5 -144q0 -90 16 -165.5t47.5 -144t79 -133.5t111.5 -133v-219h-545v266h232q-49 48 -91 106t-72.5 125t-47.5 142.5 t-17 159.5q0 77 14 155.5t44.5 152t79 137.5t117 111.5t159 75t205.5 27.5t205.5 -27.5t159 -75t116.5 -111.5t78.5 -137.5t44.5 -152t14 -155.5q0 -84 -17.5 -159.5t-48 -142.5t-72.5 -125t-91 -106h234v-266h-545z" />
<glyph horiz-adv-x="1221" d="M801 0v96q-29 -52 -85 -86.5t-134 -34.5q-53 0 -95 16t-65 36v-312l-268 -125v1457h266v-615q0 -53 14 -91t38.5 -62.5t58 -36t71.5 -11.5q42 0 78 10.5t63 34t42.5 61t15.5 91.5v619h266v-1047h-266z" />
<glyph horiz-adv-x="471" />
<glyph horiz-adv-x="578" d="M156 0v1047h266v-1047h-266zM289 1169q-32 0 -60.5 12.5t-49.5 33.5t-33.5 49.5t-12.5 60.5t12.5 60t33.5 49t49.5 33t60.5 12t60.5 -12t49.5 -33t33 -49t12 -60t-12 -60.5t-33 -49.5t-49.5 -33.5t-60.5 -12.5z" />
</font>
</defs>
</svg>
